Важное объявление!
У Нас Все раздачи мультитрекерные, при нуле пиров в релизах, можете смело вставать на закачку!
 
Автор Сообщение

HUNTER

Стаж:
4 года 4 месяца
Сообщений:
56755

Репутация: 101

[+] [-]
Вне форума [Профиль] [ЛС]

-
Бэтмен будущего/Batman Beyond-Год выпуска:1999–2001
Страна:США
Жанр:мультсериал,фантастика, боевик, триллер, криминал, Анимационный, Анимация, Приключения
Продолжительность:~20 мин.
Кол-во эпизодов: 52 х
Перевод:Профессиональный (полное дублирование)-Студия: Warner Bros
Режиссёр: Батч Лукич, Дэн Риба, Курт Геда-Описание:
Долгими десятилетиями Брюс Уэйн под маской непобедимого Бэтмена защищал жителей Готэм-сити от посягательств Сил Зла. Спустя полвека постаревший Бэтмен решает уйти на заслуженный отдых. Кто теперь остановит беспощадных злодеев? Уверенные в своей безнаказанности, они уже готовы к вторжению на городские улицы.
Но о тайне Брюса Уэйна случайно узнает отважный юноша Терри Макгиннис. Облаченный в плащ Бэтмена, именно он бросает вызов беспощадным преступникам и становится новым героем Готэм-сити.
-Качество:DVDRip
Формат: AVI.
Видео кодек: XVID
Аудио кодек: MP 3
Видео:720x544 (1.33:1), 23.976 fps, XviD MPEG-4 ~1901 kbps avg, 0.18 bit/pixel
Аудио:1.Rus: 48 kHz, MPEG Layer 3, 2 ch, ~128.00 kbps avg (Дубляж СТС)
Аудио:2.Eng: 48 kHz, MPEG Layer 3, 2 ch, ~128.00 kbps avg

Кинопоиск

-

Эпизоды

01. Rebirth (1)
02. Rebirth (2)
03. Black Out
04. Golem
05. Meltdown
06. Heroes
07. Shriek
08. Dead Man's Hand
09. The Winning Edge
10. Spellbound
11. Disappearing Inque
12. A Touch Of Curarй
13. Ascension
14. Splicers (Мутанты)
15. Earth Mover (Движение Земли)
16. Joyride (Угон)
17. Lost Soul (Потерянная Душа)
18. Hidden Agenda (Скрытая Программа)
19. BloodSport (Кровавая Охота)
20. Once Burned (Однажды Солгав)
21. Hooked Up (На Крючке)
22. Rats! (Крысы!)
23. Mind Games (Игры Разума)
24. Revenant (Призрак)
25. Babel
26. Terry's Friend Dates a Robot
27. Eyewitness
28. Final Cut
29. The Last Resort
30. Armory
31. Sneak Peek
32. The Eggbaby
33. Zeta
34. Plague
35. April Moon
36. Sentries Of The Last Cosmos
37. Payback
38. Where's Terry?
39. Ace In The Hole
40. King's Ransom
41. Untouchable
42. Inqueling
43. Big Time
44. Out of the Past
45. Speak No Evil
46. The Call (1)
47. The Call (2)
48. Betrayal
49. Curse Of Kobra (1)
50. Curse Of Kobra (2)
51. Countdown
52. Unmasked
-

MediaInfo

Общее
Полное имя : D:\скачка\фильмы\Batman\Batman Beyond (1999-2001) DVDRip\batman.beyond.s01e01.rebirth.(p.1).avi
Формат : AVI
Формат/Информация : Audio Video Interleave
Размер файла : 342 Мбайт
Продолжительность : 22 м.
Общий поток : 2171 Кбит/сек
Программа кодирования : VirtualDubMod 1.5.10.2 (build 2540/release)
Библиотека кодирования : VirtualDubMod build 2540/release
Видео
Идентификатор : 0
Формат : MPEG-4 Visual
Профиль формата : Advanced Simple@L5
Параметр BVOP формата : 1
Параметр QPel формата : Нет
Параметр GMC формата : Без точки перехода
Параметр матрицы формата : Default (H.263)
Режим смешивания : Сжатый битовый поток
Идентификатор кодека : XVID
Идентификатор кодека/Подсказка : XviD
Продолжительность : 22 м.
Битрейт : 1901 Кбит/сек
Ширина : 720 пикселей
Высота : 544 пикселя
Соотношение сторон : 4:3
Частота кадров : 23,976 кадра/сек
Цветовое пространство : YUV
Субдискретизация насыщенности : 4:2:0
Битовая глубина : 8 бит
Тип развёртки : Прогрессивная
Метод сжатия : С потерями
Бит/(Пиксели*Кадры) : 0.202
Размер потока : 299 Мбайт (88%)
Библиотека кодирования : XviD 1.1.2 (UTC 2006-11-01)
Аудио #1
Идентификатор : 1
Формат : MPEG Audio
Версия формата : Version 1
Профиль формата : Layer 3
Идентификатор кодека : 55
Идентификатор кодека/Подсказка : MP3
Продолжительность : 21 м.
Вид битрейта : Постоянный
Битрейт : 128 Кбит/сек
Каналы : 2 канала
Частота : 44,1 КГц
Метод сжатия : С потерями
Задержка видео : 11 мс.
Размер потока : 20,1 Мбайт (6%)
Выравнивание : Разделение по промежуткам
Продолжительность промежутка : 42 мс. (1,00 видеокадр)
Время предзагрузки промежутка : 500 мс.
Библиотека кодирования : LAME3.87 (beta 1, De
Аудио #2
Идентификатор : 2
Формат : MPEG Audio
Версия формата : Version 1
Профиль формата : Layer 3
Идентификатор кодека : 55
Идентификатор кодека/Подсказка : MP3
Продолжительность : 21 м.
Вид битрейта : Постоянный
Битрейт : 128 Кбит/сек
Каналы : 2 канала
Частота : 44,1 КГц
Метод сжатия : С потерями
Задержка видео : 11 мс.
Размер потока : 20,1 Мбайт (6%)
Выравнивание : Разделение по промежуткам
Продолжительность промежутка : 42 мс. (1,00 видеокадр)
Время предзагрузки промежутка : 500 мс.
Библиотека кодирования : LAME3.87 (beta 1, De
-

Скриншоты

-Релиз от:

_________________
Показать сообщения:    

Текущее время: Сегодня 14:53

Часовой пояс: GMT



Вы не можете начинать темы
Вы не можете отвечать на сообщения
Вы не можете редактировать свои сообщения
Вы не можете удалять свои сообщения
Вы не можете голосовать в опросах
Вы не можете прикреплять файлы к сообщениям
Вы не можете скачивать файлы