Важное объявление!
У Нас Все раздачи мультитрекерные, при нуле пиров в релизах, можете смело вставать на закачку!
 
Автор Сообщение

HUNTER

Стаж:
4 года 4 месяца
Сообщений:
56829

Репутация: 101

[+] [-]
Вне форума [Профиль] [ЛС]

Был ли Джон Кеннеди жертвой мафии? / Did The Mob Kill JFK?
Год выпуска: 2012
Страна: Великобритания, DISCOVERY CHANNEL
Жанр: Документальный
Продолжительность: 00:44:00
Перевод: Одноголосый закадровый
Русские субтитры: нет
Режиссер: Ллойд Фалес / Lloyd Fales
Описание: Документальный фильм представляет убедительные доказательства, подтверждающие теорию, что мафия стояла за убийством Джона Кеннеди. Программа содержит интервью, которое никогда раньше не видела широкая публика, с информатором ФБР, который отбывал наказание в одной тюремной камере с боссом мафии Карлосом Марчелло - последний признался в инсценировке убийство президента. В программе, вы узнаете о методах Кеннеди, которыми он оказывал адресное давление на боссов мафии, когда обнаружил, что они заключили союз с ЦРУ в попытке свержения кубинского лидера Фиделя Кастро. Марчелло, который контролировал преступность в Луизиане и Техасе, уже давно подозревался в причастности к убийству Кеннеди.
Сэмпл: http://multi-up.com/942006
качество: DVB
формат: TS/M2TS
Видео: AVC, аноморф. 720x576, 4:3, 1475 Кбит/сек, 25 fps
Аудио (rus): MPEG Audio, 160 Кбит/сек, 48,0 КГц, 2 канала
Аудио (eng): MPEG Audio, 160 Кбит/сек, 48,0 КГц, 2 канала

MediaInfo

Общее
Идентификатор : 16 (0x10)
Полное имя : Did The Mob Kill JFK.ts
Формат : MPEG-TS
Размер файла : 597 Мбайт
Продолжительность : 44 м.
Режим общего битрейта : Переменный
Общий поток : 1891 Кбит/сек
Видео
Идентификатор : 1407 (0x57F)
Идентификатор меню : 407 (0x197)
Формат : AVC
Формат/Информация : Advanced Video Codec
Профиль формата : Main@L3.0
Параметр CABAC формата : Да
Параметр ReFrames формата : 3 кадра
Параметр GOP формата : M=4, N=28
Идентификатор кодека : 27
Продолжительность : 44 м.
Битрейт : 1475 Кбит/сек
Ширина : 720 пикселей
Высота : 576 пикселей
Соотношение сторон : 4:3
Частота кадров : 25,000 кадров/сек
Стандарт вещания : PAL
Цветовое пространство : YUV
Субдискретизация насыщенности : 4:2:0
Битовая глубина : 8 бит
Тип развёртки : Чересстрочная
Порядок развёртки : Верхнее поле первое
Бит/(Пиксели*Кадры) : 0.142
Размер потока : 466 Мбайт (78%)
Основные цвета : BT.601 PAL
Характеристики трансфера : BT.470 System B, BT.470 System G
Коэффициенты матрицы : BT.601
Аудио #1
Идентификатор : 2407 (0x967)
Идентификатор меню : 407 (0x197)
Формат : MPEG Audio
Версия формата : Version 1
Профиль формата : Layer 2
Идентификатор кодека : 4
Продолжительность : 44 м.
Вид битрейта : Постоянный
Битрейт : 160 Кбит/сек
Каналы : 2 канала
Частота : 48,0 КГц
Метод сжатия : С потерями
Задержка видео : 86 мс.
Размер потока : 50,6 Мбайт (8%)
Язык : std
Язык, дополнительно : Clean effects
Аудио #2
Идентификатор : 3407 (0xD4F)
Идентификатор меню : 407 (0x197)
Формат : MPEG Audio
Версия формата : Version 1
Профиль формата : Layer 2
Идентификатор кодека : 4
Продолжительность : 44 м.
Вид битрейта : Постоянный
Битрейт : 160 Кбит/сек
Каналы : 2 канала
Частота : 48,0 КГц
Метод сжатия : С потерями
Задержка видео : 110 мс.
Размер потока : 50,6 Мбайт (8%)
Язык : English
Язык, дополнительно : Clean effects

Скриншоты


_________________
Показать сообщения:    

Текущее время: Сегодня 14:02

Часовой пояс: GMT



Вы не можете начинать темы
Вы не можете отвечать на сообщения
Вы не можете редактировать свои сообщения
Вы не можете удалять свои сообщения
Вы не можете голосовать в опросах
Вы не можете прикреплять файлы к сообщениям
Вы не можете скачивать файлы