Важное объявление!
У Нас Все раздачи мультитрекерные, при нуле пиров в релизах, можете смело вставать на закачку!
 
Автор Сообщение

HUNTER

Стаж:
4 года 4 месяца
Сообщений:
56749

Репутация: 101

[+] [-]
Вне форума [Профиль] [ЛС]

Бывшие: Лучшие друзья! / Ex: Amici come prima
Страна: Италия
Жанр: комедия
Год выпуска: 2011
Продолжительность: 01:38:27
Перевод: одноголосый закадровый VO (Kenum)
Cубтитры: итальянские
Оригинальная аудиодорожка: итальянский
Режиссер: Карло Ванцина
В ролях: Манфреди Аликво, Лучия Боденидза, Энрико Бриньяно, Тоска Д’Аквино, Анна Фольетта, Алессандро Гассман, Розабелла Лауренти Селлерс, Вероника Логан, Тереза Маннино, Вирджиния Марсан
Описание: Согласия и разногласия, преступления и несчастные случаи, любовные истории, которые только начинаются, либо близятся к завершению, и невероятные шутки судьбы, которые сделают так, что пути героев этой романтической комедии недоразумений пересекутся на мгновение, а может навсегда. Ироническое отображение историй, или скорее, сентиментальной географии наших дней, в которых ничто не является тем, чем кажется, поскольку на протяжении жизни, рано или поздно, каждому суждено стать «бывшим».
сэмпл на я.диске (1080P, 249 МБ, 0:02:22)
Качество видео: BDRip 1080p
Формат видео: MKV
Видео: 1920 x 816 (2.353) at 24.000 fps, AVC at 9508 Кбит/сек
Аудио 1: Russian AC-3 at 448 Кбит/сек, 6 каналов, 48,0 КГц, (одноголосый, VO Kenum)
Аудио 2: Italian DTS at 1509 Кбит/сек, 6 каналов, 48,0 КГц, (оригинал)

MediaInfo

Размер файла : 8,14 Гбайт
Продолжительность : 1 ч. 39 м.
Общий поток : 11,7 Мбит/сек
Название фильма : Ex: Amici come prima (2011) 1080p BDRip
Дата кодирования : UTC 2014-04-02 15:57:05
Программа кодирования : mkvmerge v6.8.0 ('Theme for Great Cities') 64bit built on Mar 2 2014 21:34:26
Библиотека кодирования : libebml v1.3.0 + libmatroska v1.4.1
Видео
Идентификатор : 1
Формат : AVC
Формат/Информация : Advanced Video Codec
Профиль формата : High@L4.1
Параметр CABAC формата : Да
Параметр ReFrames формата : 5 кадров
Идентификатор кодека : V_MPEG4/ISO/AVC
Продолжительность : 1 ч. 39 м.
Битрейт : 9521 Кбит/сек
Ширина : 1920 пикселей
Высота : 816 пикселей
Соотношение сторон : 2,35:1
Режим частоты кадров : Постоянный
Частота кадров : 24,000 кадра/сек
Цветовое пространство : YUV
Субдискретизация насыщенности : 4:2:0
Битовая глубина : 8 бит
Тип развёртки : Прогрессивная
Бит/(Пиксели*Кадры) : 0.253
Размер потока : 6,61 Гбайт (81%)
Заголовок : Rip By B&S
Библиотека кодирования : x264 core 138 r2358 9e941d1
Язык : Italian
Default : Да
Forced : Нет
Аудио #1
Идентификатор : 2
Формат : AC-3
Формат/Информация : Audio Coding 3
Расширение режима : CM (complete main)
Параметр Endianness формата : Big
Идентификатор кодека : A_AC3
Продолжительность : 1 ч. 39 м.
Вид битрейта : Постоянный
Битрейт : 448 Кбит/сек
Каналы : 6 каналов
Расположение каналов : Front: L C R, Side: L R, LFE
Частота : 48,0 КГц
Битовая глубина : 16 бит
Метод сжатия : С потерями
Размер потока : 319 Мбайт (4%)
Заголовок : AC3 Ita 5.1 Ch
Язык : Russian
Default : Нет
Forced : Нет
Аудио #2
Идентификатор : 3
Формат : DTS
Формат/Информация : Digital Theater Systems
Режим : 16
Параметр Endianness формата : Big
Идентификатор кодека : A_DTS
Продолжительность : 1 ч. 39 м.
Вид битрейта : Постоянный
Битрейт : 1509 Кбит/сек
Каналы : 6 каналов
Расположение каналов : Front: L C R, Side: L R, LFE
Частота : 48,0 КГц
Битовая глубина : 24 бит
Метод сжатия : С потерями
Размер потока : 1,05 Гбайт (13%)
Заголовок : Dts Ita 5.1 Ch
Язык : Italian
Default : Нет
Forced : Нет
Текст
Идентификатор : 4
Формат : UTF-8
Идентификатор кодека : S_TEXT/UTF8
Идентификатор кодека/Информация : UTF-8 Plain Text
Заголовок : Subs Ita (Regular)
Язык : Italian
Default : Нет
Forced : Нет

Скриншоты


_________________
Показать сообщения:    

Текущее время: Сегодня 01:28

Часовой пояс: GMT



Вы не можете начинать темы
Вы не можете отвечать на сообщения
Вы не можете редактировать свои сообщения
Вы не можете удалять свои сообщения
Вы не можете голосовать в опросах
Вы не можете прикреплять файлы к сообщениям
Вы не можете скачивать файлы