Важное объявление!
У Нас Все раздачи мультитрекерные, при нуле пиров в релизах, можете смело вставать на закачку!
 
Автор Сообщение

HUNTER

Стаж:
4 года 4 месяца
Сообщений:
56798

Репутация: 101

[+] [-]
Вне форума [Профиль] [ЛС]

Бывшие / The Exes
-Год выпуска: 2012
Страна: США
Жанр: комедия
Продолжительность: ~00:20:00
Перевод: Профессиональный (двухголосый, закадровый) [NICE-MEDIA]
Субтитры: отсутствуют-В ролях: Дональд Фэйсон, Уэйн Найт, Дэвид Алан Баш, Келли Стейблз, Кристен Джонстон, Дидрих Бадер
Режиссёр: Энди Кэдифф, Эндрю Д. Вейман / Andy Cadiff, Andrew D. Weyman-Описание: История трех разведенных мужиков, тетки-адвокатши, которая свела их в одной квартире и ее миниатюрной ассистентки.-Качество: WEBDLRip 720p
Формат: MKV
Видео кодек: H.264
Аудио кодек: AC3
Видео: 1280x720, ~4000 Кбит/сек at 23.976 fps
Аудио1: NICE-MEDIA: 192 Кбит/сек, 2 каналы, 48.0 КГц
Аудио2: Оригинал: 192 Кбит/сек, 2 каналы, 48.0 КГц

MediaInfo

Ц Цитата: General
Unique ID : 181062153637715096929627324805502067680 (0x88374D66B7F794FD846007B65FA1E3E0)
Complete name : C:\Фильмы\Бывшие\Бывшие. Сезон 2. Серия 01.mkv
Format : Matroska
Format version : Version 2
File size : 679 MiB
Duration : 21mn 14s
Overall bit rate : 4 470 Kbps
Encoded date : UTC 2012-10-18 18:22:30
Writing application : mkvmerge v4.1.1 ('Bouncin' Back') сборка от Jul 3 2010 22:54:08
Writing library : libebml v1.0.0 + libmatroska v1.0.0
Video
ID : 1
Format : AVC
Format/Info : Advanced Video Codec
Format profile : [url=mailto:High@L3.1]High@L3.1[/url]
Format settings, CABAC : No
Format settings, ReFrames : 2 frames
Format settings, GOP : M=2, N=49
Codec ID : V_MPEG4/ISO/AVC
Duration : 21mn 14s
Bit rate : 3 997 Kbps
Width : 1 280 pixels
Height : 720 pixels
Display aspect ratio : 16:9
Frame rate : 23.976 fps
Color space : YUV
Chroma subsampling : 4:2:0
Bit depth : 8 bits
Scan type : Progressive
Bits/(Pixel*Frame) : 0.181
Stream size : 607 MiB (89%)
Language : English
Color primaries : BT.709-5, BT.1361, IEC 61966-2-4, SMPTE RP177
Transfer characteristics : BT.709-5, BT.1361
Matrix coefficients : BT.709-5, BT.1361, IEC 61966-2-4 709, SMPTE RP177
Audio #1
ID : 2
Format : AC-3
Format/Info : Audio Coding 3
Mode extension : CM (complete main)
Muxing mode : Header stripping
Codec ID : A_AC3
Duration : 21mn 14s
Bit rate mode : Constant
Bit rate : 192 Kbps
Channel(s) : 2 channels
Channel positions : Front: L R
Sampling rate : 48.0 KHz
Bit depth : 16 bits
Compression mode : Lossy
Stream size : 29.2 MiB (4%)
Title : RUS
Language : Russian
Audio #2
ID : 3
Format : AC-3
Format/Info : Audio Coding 3
Mode extension : CM (complete main)
Muxing mode : Header stripping
Codec ID : A_AC3
Duration : 21mn 14s
Bit rate mode : Constant
Bit rate : 192 Kbps
Channel(s) : 2 channels
Channel positions : Front: L R
Sampling rate : 48.0 KHz
Bit depth : 16 bits
Compression mode : Lossy
Stream size : 29.2 MiB (4%)
Title : ENG
Language : English
-

Рейтинг

Рейтинг:

Скриншоты


_________________
Показать сообщения:    

Текущее время: Сегодня 05:13

Часовой пояс: GMT



Вы не можете начинать темы
Вы не можете отвечать на сообщения
Вы не можете редактировать свои сообщения
Вы не можете удалять свои сообщения
Вы не можете голосовать в опросах
Вы не можете прикреплять файлы к сообщениям
Вы не можете скачивать файлы