Важное объявление!
У Нас Все раздачи мультитрекерные, при нуле пиров в релизах, можете смело вставать на закачку!
 
Автор Сообщение

HUNTER

Стаж:
4 года 4 месяца
Сообщений:
56772

Репутация: 101

[+] [-]
Вне форума [Профиль] [ЛС]

Буч Кэссиди и Сандэнс Кид / Butch Cassidy and the Sundance Kid-
Год выпуска: 1969
Страна: США
Жанр: криминал, приключения, вестерн
Продолжительность: 01:50:27
Перевод: Профессиональный (многоголосый, закадровый) SomeWax
+ Авторский одноголосый А.Михалев
Оригинальная звуковая дорожка: English
Субтитры: Russian (x2), Ukrainian, English-Режиссер: Джордж Рой Хилл / George Roy Hill
В ролях: Пол Ньюман, Роберт Редфорд, Кэтрин Росс, Стразер Мартин, Генри Джонс, Джефф Кори, Джордж Ферт, Клорис Личмен, Тед Кэссиди, Кеннет Марс
О фильме: Два друга Буч Кэссиди и Сандэнс Кид известны всей округе. Они верховодят бандой «Дырка в стене». Буч - мозговой центр, Сандэнс - идеальный исполнитель и первоклассный стрелок. Они дважды грабят один и тот же поезд, перевозящий деньги.
За налетчиками организована погоня, которой руководит опытный следопыт Балтимор. От него не удавалось уйти никому. С трудом оторвавшись от преследования, приятели укрываются в доме подружки Сандэса. И тогда Буч понимает: раз удача отвернулась от них в Америке, может стоит попытать счастья в Боливии?-SbR!
Релиз:
Формат: MKV
Видео: 1920x810 at 23.976 fps, x264@L4.1, crf, ~16002 kbps avg
Аудио #01: Russian: 48 kHz, DTS, 3/2 (L,C,R,l,r) + LFE ch, ~1509 kbps avg |Многоголосый закадровый, SomeWax|
Аудио #02: Russian: 48 kHz, DTS, 3/2 (L,C,R,l,r) + LFE ch, ~1509 kbps avg |Одноголосый закадровый, А. Михалев|
Аудио #03: Ukrainian: 48 kHz, AC3, 2/0 (L,R) ch, ~192 kbps avg |Двухголосый закадровый, Кіно|
Аудио #04: English: 48 kHz, DTS, 3/2 (L,C,R,l,r) + LFE ch, ~1509 kbps avg
Семпл-
-

mInfo

Полное имя : E:\Butch.Cassidy.and.the.Sundance.Kid.1969.1080p.BluRay.2xRus.Ukr.Eng.HDCLUB-SbR.mkv
Формат : Matroska
Версия формата : Version 4 / Version 2
Размер файла : 16,0 Гбайт
Продолжительность : 1 ч. 50 м.
Общий поток : 20,7 Мбит/сек
Название фильма : Butch Cassidy and the Sundance Kid (1969) - Release for HDCLUB by SbR
Дата кодирования : UTC 2014-01-22 10:32:33
Программа кодирования : mkvmerge v6.6.0 ('The Edge Of The In Between') built on Dec 1 2013 17:55:00
Библиотека кодирования : libebml v1.3.0 + libmatroska v1.4.1
Attachements : cover.jpg / xlog.txt
Видео
Идентификатор : 1
Формат : AVC
Формат/Информация : Advanced Video Codec
Профиль формата : High@L4.1
Параметр CABAC формата : Да
Параметр ReFrames формата : 5 кадров
Идентификатор кодека : V_MPEG4/ISO/AVC
Продолжительность : 1 ч. 50 м.
Битрейт : 15,6 Мбит/сек
Ширина : 1920 пикселей
Высота : 810 пикселей
Соотношение сторон : 2,40:1
Режим частоты кадров : Постоянный
Частота кадров : 23,976 кадра/сек
Цветовое пространство : YUV
Субдискретизация насыщенности : 4:2:0
Битовая глубина : 8 бит
Тип развёртки : Прогрессивная
Бит/(Пиксели*Кадры) : 0.418
Размер потока : 12,0 Гбайт (75%)
Заголовок : Release for HDCLUB
Библиотека кодирования : x264 core 140 r2377+40 929f149 tMod [8-bit@4:2:0 X86_64]
Настройки программы : cabac=1 / ref=5 / deblock=1:-2:-2 / analyse=0x3:0x113 / me=umh / subme=11 / psy=1 / fade_compensate=0.00 / psy_rd=1.00:0.00 / mixed_ref=1 / me_range=48 / chroma_me=1 / trellis=2 / 8x8dct=1 / cqm=0 / deadzone=21,11 / fast_pskip=1 / chroma_qp_offset=-2 / threads=12 / lookahead_threads=3 / sliced_threads=0 / nr=0 / decimate=1 / interlaced=0 / bluray_compat=0 / constrained_intra=0 / fgo=0 / bframes=12 / b_pyramid=2 / b_adapt=2 / b_bias=0 / direct=3 / weightb=1 / open_gop=0 / weightp=2 / keyint=250 / keyint_min=23 / scenecut=40 / intra_refresh=0 / rc_lookahead=60 / rc=crf / mbtree=0 / crf=18.5000 / qcomp=0.70 / qpmin=0:0:0 / qpmax=69:69:69 / qpstep=4 / vbv_maxrate=62500 / vbv_bufsize=78125 / crf_max=0.0 / nal_hrd=none / filler=0 / ip_ratio=1.40 / pb_ratio=1.30 / aq=4:0.80 / aq-sensitivity=11.00 / aq-factor=1.00:1.00:1.00 / aq2=1:0.60 / aq2-sensitivity=9.00 / aq2-factor=1.00:1.00:1.00 / aq3=1:[0.60:0.60]:[0.60:0.60]:[0.60:0.60]:[0.60:0.60] / aq3-sensitivity=10.00 / aq3-factor=[1.00:1.00]:[1.00:1.00]:[1.00:1.00] / aq3-boundary=192:64:24
Язык : English
Default : Да
Forced : Нет
Основные цвета : BT.709
Характеристики трансфера : BT.709
Коэффициенты матрицы : BT.709
colour_range : Limited
Аудио #1
Идентификатор : 2
Формат : DTS
Формат/Информация : Digital Theater Systems
Режим : 16
Параметр Endianness формата : Big
Идентификатор кодека : A_DTS
Продолжительность : 1 ч. 50 м.
Вид битрейта : Постоянный
Битрейт : 1510 Кбит/сек
Каналы : 6 каналов
Расположение каналов : Front: L C R, Side: L R, LFE
Частота : 48,0 КГц
Битовая глубина : 24 бит
Метод сжатия : С потерями
Размер потока : 1,16 Гбайт (7%)
Заголовок : MVO, SomeWax
Язык : Russian
Default : Нет
Forced : Нет
Аудио #2
Идентификатор : 3
Формат : DTS
Формат/Информация : Digital Theater Systems
Режим : 16
Параметр Endianness формата : Big
Идентификатор кодека : A_DTS
Продолжительность : 1 ч. 50 м.
Вид битрейта : Постоянный
Битрейт : 1510 Кбит/сек
Каналы : 6 каналов
Расположение каналов : Front: L C R, Side: L R, LFE
Частота : 48,0 КГц
Битовая глубина : 24 бит
Метод сжатия : С потерями
Размер потока : 1,16 Гбайт (7%)
Заголовок : VO, Михалёв
Язык : Russian
Default : Нет
Forced : Нет
Аудио #3
Идентификатор : 4
Формат : AC-3
Формат/Информация : Audio Coding 3
Расширение режима : CM (complete main)
Параметр Endianness формата : Big
Идентификатор кодека : A_AC3
Продолжительность : 1 ч. 50 м.
Вид битрейта : Постоянный
Битрейт : 192 Кбит/сек
Каналы : 2 канала
Расположение каналов : Front: L R
Частота : 48,0 КГц
Битовая глубина : 16 бит
Метод сжатия : С потерями
Размер потока : 152 Мбайт (1%)
Заголовок : DVO, Кіно
Язык : Ukrainian
Default : Нет
Forced : Нет
Аудио #4
Идентификатор : 5
Формат : DTS
Формат/Информация : Digital Theater Systems
Режим : 16
Параметр Endianness формата : Big
Идентификатор кодека : A_DTS
Продолжительность : 1 ч. 50 м.
Вид битрейта : Постоянный
Битрейт : 1509 Кбит/сек
Каналы : 6 каналов
Расположение каналов : Front: L C R, Side: L R, LFE
Частота : 48,0 КГц
Битовая глубина : 24 бит
Метод сжатия : С потерями
Размер потока : 1,16 Гбайт (7%)
Язык : English
Default : Нет
Forced : Нет
Текст #1
Идентификатор : 6
Формат : UTF-8
Идентификатор кодека : S_TEXT/UTF8
Идентификатор кодека/Информация : UTF-8 Plain Text
Язык : Russian
Default : Нет
Forced : Нет
Текст #2
Идентификатор : 7
Формат : UTF-8
Идентификатор кодека : S_TEXT/UTF8
Идентификатор кодека/Информация : UTF-8 Plain Text
Язык : Russian
Default : Нет
Forced : Нет
Текст #3
Идентификатор : 8
Формат : UTF-8
Идентификатор кодека : S_TEXT/UTF8
Идентификатор кодека/Информация : UTF-8 Plain Text
Язык : Ukrainian
Default : Нет
Forced : Нет
Текст #4
Идентификатор : 9
Формат : UTF-8
Идентификатор кодека : S_TEXT/UTF8
Идентификатор кодека/Информация : UTF-8 Plain Text
Язык : English
Default : Нет
Forced : Нет
Меню
00:00:00.000 : en:Titles
00:02:55.299 : en:Butch
00:04:58.798 : en:Sundance
00:09:04.419 : en:Hole in the Wall Gang
00:11:14.799 : en:Harvey
00:15:37.603 : en:First Hit on the Flyer
00:18:18.472 : en:R&R at Fanny's
00:22:01.737 : en:Etta
00:26:12.862 : en:Raindrops Keep Fallin' on My Head
00:31:25.842 : en:Second Hit on the Flyer
00:34:13.593 : en:The Super Posse
00:38:10.079 : en:Hiding Out at Fanny's
00:40:43.274 : en:Chase By Night
00:46:30.621 : en:Sheriff Bledsoe
00:49:06.485 : en:Chase By Day
00:53:24.159 : en:Chased the River's Edge and Beyond
00:56:29.219 : en:Decision at Etta's
01:00:58.071 : en:New York
01:04:06.051 : en:Bolivia
01:06:28.067 : en:Bandidos Yanquis
01:09:42.553 : en:Going Straight
01:12:55.580 : en:Etta Goes Home
01:16:02.265 : en:Again on the Outlaw Trail
01:18:32.499 : en:The Shootout
01:22:13.137 : en:Titles
01:34:05.473 : en:Butch
01:36:32.328 : en:Sundance
01:38:45.920 : en:Hole in the Wall Gang

-
Цитата:
Цитата:

* Спасибо AnryV за русские дорожки.
* Спасибо karvai0 за украинскую дорожку.

_________________
Показать сообщения:    

Текущее время: Сегодня 11:00

Часовой пояс: GMT



Вы не можете начинать темы
Вы не можете отвечать на сообщения
Вы не можете редактировать свои сообщения
Вы не можете удалять свои сообщения
Вы не можете голосовать в опросах
Вы не можете прикреплять файлы к сообщениям
Вы не можете скачивать файлы