Важное объявление!
У Нас Все раздачи мультитрекерные, при нуле пиров в релизах, можете смело вставать на закачку!
 
Автор Сообщение

HUNTER

Стаж:
4 года 4 месяца
Сообщений:
56749

Репутация: 101

[+] [-]
Вне форума [Профиль] [ЛС]

Бунтарь без идеала / Бунтовщик без причины / Rebel Without a Cause
Страна: США
Студия: Warner Bros.
Жанр: драма, мелодрама
Год выпуска: 1955
Продолжительность: 01:50:55
Перевод 1: Профессиональный (многоголосый закадровый)
Перевод 2: Профессиональный (двухголосый закадровый) Культура
Cубтитры: английские
Оригинальная аудиодорожка: английский
Режиссер: Николас Рэй / Nicholas Ray
В ролях: Джеймс Дин, Натали Вуд, Сэл Минео, Джим Бэкус, Энн Доран, Кори Аллен, Уильям Хоппер, Рошель Хадсон, Деннис Хоппер, Эдвард Платт, Штеффи Сидни, Мариэтта Кэнти, Вирджиния Бриссак, Беверли Лонг, Йэн Вулф, Роберт Фоулк, Ник Адамс
Описание: Шалопай и сорвиголова Джим Старк постоянно посещает новые школы, так как его отовсюду исключают. Вот и теперь, в очередной раз сменив место жительства, он вынужден вливаться в коллектив, обзаводясь друзьями и врагами. А ещё Джим знакомится с замечательной девушкой по имени Джуди, моментально почувствовав ответную симпатию. Только вот между ними возникает фигура её бывшего парня, База Гандерсона, и своим поведением Джуди вольно или невольно провоцирует соперников на поединок. Дуэль неизбежна, примет ли она форму смертельно опасного состязания на автомобилях или отчаянной драки на ножах…

Доп. информация:
Исходник
Запись звука с т/к Культура и синхронизация vedigo
Тип релиза: BDRip 1080p
Контейнер: MKV
Видео: AVC 1920x752 (16:9) 23,976fps Bit rate 10500Kbps High@L4.1
Аудио 1: AC3 48.0KHz 6ch 384 Kbps rus mvo
Аудио 2: AC3 48.0KHz 2ch 192 Kbps rus dvo
Аудио 3: DTS 48.0KHz 6ch 1509 Kbps eng
Формат субтитров: softsub (SRT)

MediaInfo

Общее
Уникальный идентификатор : 217444726089192376772260630550278836329 (0xA39654B7550377D48220DA1D738C1069)
Полное имя : E:\torrent\Rebel.Without.a.Cause.BDRip1080p.mkv
Формат : Matroska
Версия формата : Version 4 / Version 2
Размер файла : 9,75 Гбайт
Продолжительность : 1 ч. 50 м.
Общий поток : 12,6 Мбит/сек
Дата кодирования : UTC 2014-03-09 04:37:13
Программа кодирования : mkvmerge v6.7.0 ('Back to the Ground') 32bit built on Jan 8 2014 15:03:17
Библиотека кодирования : libebml v1.3.0 + libmatroska v1.4.1
Видео
Идентификатор : 1
Формат : AVC
Формат/Информация : Advanced Video Codec
Профиль формата : High@L4.1
Параметр CABAC формата : Да
Параметр ReFrames формата : 5 кадров
Идентификатор кодека : V_MPEG4/ISO/AVC
Продолжительность : 1 ч. 50 м.
Битрейт : 10,5 Мбит/сек
Ширина : 1920 пикселей
Высота : 752 пикселя
Соотношение сторон : 2,553
Режим частоты кадров : Постоянный
Частота кадров : 23,976 кадра/сек
Цветовое пространство : YUV
Субдискретизация насыщенности : 4:2:0
Битовая глубина : 8 бит
Тип развёртки : Прогрессивная
Бит/(Пиксели*Кадры) : 0.303
Размер потока : 7,94 Гбайт (81%)
Заголовок : Rebel.Without.a.Cause.BDRip1080p
Библиотека кодирования : x264 core 130 r2273 b3065e6
Настройки программы : cabac=1 / ref=5 / deblock=1:-1:-1 / analyse=0x3:0x113 / me=umh / subme=11 / psy=1 / psy_rd=1.00:0.10 / mixed_ref=1 / me_range=32 / chroma_me=1 / trellis=2 / 8x8dct=1 / cqm=0 / deadzone=21,11 / fast_pskip=1 / chroma_qp_offset=-3 / threads=12 / lookahead_threads=1 / sliced_threads=0 / nr=0 / decimate=1 / interlaced=0 / bluray_compat=0 / constrained_intra=0 / bframes=8 / b_pyramid=2 / b_adapt=1 / b_bias=0 / direct=3 / weightb=1 / open_gop=0 / weightp=2 / keyint=250 / keyint_min=23 / scenecut=40 / intra_refresh=0 / rc_lookahead=40 / rc=2pass / mbtree=1 / bitrate=10500 / ratetol=1.0 / qcomp=0.60 / qpmin=0 / qpmax=69 / qpstep=4 / cplxblur=20.0 / qblur=0.5 / ip_ratio=1.40 / aq=1:1.00
Default : Да
Forced : Нет
Аудио #1
Идентификатор : 2
Формат : AC-3
Формат/Информация : Audio Coding 3
Расширение режима : CM (complete main)
Параметр Endianness формата : Big
Идентификатор кодека : A_AC3
Продолжительность : 1 ч. 50 м.
Вид битрейта : Постоянный
Битрейт : 384 Кбит/сек
Каналы : 6 каналов
Расположение каналов : Front: L C R, Side: L R, LFE
Частота : 48,0 КГц
Битовая глубина : 16 бит
Метод сжатия : С потерями
Размер потока : 305 Мбайт (3%)
Заголовок : Rebel.Without.a.Cause_AC3_6ch_rus_mvo
Язык : Russian
Default : Да
Forced : Нет
Аудио #2
Идентификатор : 3
Формат : AC-3
Формат/Информация : Audio Coding 3
Расширение режима : CM (complete main)
Параметр Endianness формата : Big
Идентификатор кодека : A_AC3
Продолжительность : 1 ч. 50 м.
Вид битрейта : Постоянный
Битрейт : 192 Кбит/сек
Каналы : 2 канала
Расположение каналов : Front: L R
Частота : 48,0 КГц
Битовая глубина : 16 бит
Метод сжатия : С потерями
Размер потока : 152 Мбайт (2%)
Заголовок : Rebel.Without.a.Cause_AC3_2ch_rus_dvo
Язык : Russian
Default : Нет
Forced : Нет
Аудио #3
Идентификатор : 4
Формат : DTS
Формат/Информация : Digital Theater Systems
Режим : 16
Параметр Endianness формата : Big
Идентификатор кодека : A_DTS
Продолжительность : 1 ч. 50 м.
Вид битрейта : Постоянный
Битрейт : 1509 Кбит/сек
Каналы : 6 каналов
Расположение каналов : Front: L C R, Side: L R, LFE
Частота : 48,0 КГц
Битовая глубина : 24 бит
Метод сжатия : С потерями
Размер потока : 1,17 Гбайт (12%)
Заголовок : Rebel.Without.a.Cause_DTS_6ch_eng
Язык : English
Default : Нет
Forced : Нет
Текст
Идентификатор : 5
Формат : UTF-8
Идентификатор кодека : S_TEXT/UTF8
Идентификатор кодека/Информация : UTF-8 Plain Text
Заголовок : Rebel.Without.a.Cause_subtitle eng
Язык : English
Default : Нет
Forced : Нет

Скриншот с названием фильма

Скриншоты

Сравнение с исходником

Исходник Рип


_________________
Показать сообщения:    

Текущее время: Сегодня 20:58

Часовой пояс: GMT



Вы не можете начинать темы
Вы не можете отвечать на сообщения
Вы не можете редактировать свои сообщения
Вы не можете удалять свои сообщения
Вы не можете голосовать в опросах
Вы не можете прикреплять файлы к сообщениям
Вы не можете скачивать файлы