Важное объявление!
У Нас Все раздачи мультитрекерные, при нуле пиров в релизах, можете смело вставать на закачку!
 
Автор Сообщение

HUNTER

Стаж:
4 года 4 месяца
Сообщений:
56822

Репутация: 101

[+] [-]
Вне форума [Профиль] [ЛС]

Бум 2 / La boum 2-
Год выпуска: 1982
Выпущено: Франция
Жанр: драма, мелодрама, комедия
Продолжительность: 01:47:58
Перевод: Профессиональный (многоголосый, закадровый) Инис
+ Профессиональный (многоголосый, закадровый)
+ Профессиональный (Полное дублирование)
+ Профессиональный (многоголосый, закадровый) студия Аскот
+ Профессиональный (двухголосый, закадровый) НТВ
+ Оригинальная французская звуковая дорожка
Субтитры: English-Режиссер: Клод Пиното / Claude Pinoteau
В ролях: Софи Марсо, Клод Брассёр, Брижит Фоссе, Ламбер Вильсон, Пьер Коссо, Александр Стерлинг, Шила О’Коннор, Александра Гонен, Жан-Филипп Леонар, Жан Лёврэ
О фильме: После событий, происшедших в «Буме», прошло два года. Вик из угловатого подростка превратилась в хорошенькую девушку. Ей уже пятнадцать. И, как нередко случается в этом возрасте, она уверена, что жизнь уже прожита. Но вдруг - случайная встреча в поезде с голубоглазым блондином...
И вновь влюбленной, вновь почувствовавшей вкус к жизни девушке предстоит пережить немало волнений. Темпераментные родители Вик по-прежнему не знают покоя, будоража себя и окружающих. И, разумеется, изящнее остальных выглядит в окружающем океане жизни бойкая прабабушка Пупетта.-ThD!
Релиз: by Skazhutin
Формат: MKV
Видео: 1196x720 at 24.000 fps, x264@L4.1, crf, ~8366 kbps avg
Аудио #1: Russian: 48 kHz, AC3, 2/0 (L,R) ch, ~192 kbps avg |Многоголосый закадровый, Инис|
Аудио #2: Russian: 48 kHz, AC3, 2/0 (L,R) ch, ~192 kbps avg |Многоголосый закадровый|
Аудио #3: Russian: 48 kHz, AC3, 2/0 (L,R) ch, ~192 kbps avg |Дубляж|
Аудио #4: Russian: 48 kHz, AC3, 2/0 (L,R) ch, ~192 kbps avg |Многоголосый закадровый, студия Аскот|
Аудио #5: Russian: 48 kHz, AC3, 2/0 (L,R) ch, ~192 kbps avg |Двухголосый закадровый, НТВ|
Аудио #6: French: 48 kHz/16-bit, FLAC 2.0, ~334 kbps avg
Семпл-Source vs Encode
-
mInfo

Формат : Matroska
Версия формата : Version 4 / Version 2
Размер файла : 7,29 Гбайт
Продолжительность : 1 ч. 47 м.
Режим общего битрейта : Переменный
Общий поток : 9663 Кбит/сек
Название фильма : La boum 2 (1982) - Release for HDCLUB
Дата кодирования : UTC 2014-05-28 10:54:16
Программа кодирования : mkvmerge v6.9.1 ('Blue Panther') 64bit built on Apr 18 2014 18:23:38
Библиотека кодирования : libebml v1.3.0 + libmatroska v1.4.1
Attachment : Yes
Видео
Идентификатор : 1
Формат : AVC
Формат/Информация : Advanced Video Codec
Профиль формата : High@L4.1
Параметр CABAC формата : Да
Параметр ReFrames формата : 9 кадров
Идентификатор кодека : V_MPEG4/ISO/AVC
Продолжительность : 1 ч. 47 м.
Ширина : 1196 пикселей
Высота : 720 пикселей
Соотношение сторон : 1,661
Режим частоты кадров : Постоянный
Частота кадров : 24,000 кадра/сек
Цветовое пространство : YUV
Субдискретизация насыщенности : 4:2:0
Битовая глубина : 8 бит
Тип развёртки : Прогрессивная
Библиотека кодирования : x264 core 142 r2389kMod 956c8d8
Настройки программы : cabac=1 / ref=9 / deblock=1:-3:-3 / analyse=0x3:0x133 / me=umh / subme=9 / psy=1 / fade_compensate=0.00 / psy_rd=1.05:0.00 / mixed_ref=1 / me_range=24 / chroma_me=1 / trellis=2 / 8x8dct=1 / cqm=0 / deadzone=21,11 / fast_pskip=0 / chroma_qp_offset=-2 / threads=36 / lookahead_threads=5 / sliced_threads=0 / nr=0 / decimate=0 / interlaced=0 / bluray_compat=0 / constrained_intra=0 / fgo=0 / bframes=8 / b_pyramid=2 / b_adapt=2 / b_bias=0 / direct=3 / weightb=1 / open_gop=0 / weightp=2 / keyint=250 / keyint_min=24 / scenecut=40 / intra_refresh=0 / rc_lookahead=60 / rc=crf / mbtree=1 / crf=18.5000 / qcomp=0.75 / qpmin=0 / qpmax=69 / qpstep=4 / ip_ratio=1.40 / aq=2:0.80
Язык : English
Default : Да
Forced : Нет
Аудио #1
Идентификатор : 2
Формат : AC-3
Формат/Информация : Audio Coding 3
Расширение режима : CM (complete main)
Параметр Endianness формата : Big
Идентификатор кодека : A_AC3
Продолжительность : 1 ч. 47 м.
Вид битрейта : Постоянный
Битрейт : 192 Кбит/сек
Каналы : 2 канала
Расположение каналов : Front: L R
Частота : 48,0 КГц
Битовая глубина : 16 бит
Метод сжатия : С потерями
Размер потока : 148 Мбайт (2%)
Заголовок : MVO, Инис
Язык : Russian
Default : Да
Forced : Нет
Аудио #2
Идентификатор : 3
Формат : AC-3
Формат/Информация : Audio Coding 3
Расширение режима : CM (complete main)
Параметр Endianness формата : Big
Идентификатор кодека : A_AC3
Продолжительность : 1 ч. 47 м.
Вид битрейта : Постоянный
Битрейт : 192 Кбит/сек
Каналы : 2 канала
Расположение каналов : Front: L R
Частота : 48,0 КГц
Битовая глубина : 16 бит
Метод сжатия : С потерями
Размер потока : 148 Мбайт (2%)
Заголовок : MVO
Язык : Russian
Default : Нет
Forced : Нет
Аудио #3
Идентификатор : 4
Формат : AC-3
Формат/Информация : Audio Coding 3
Расширение режима : CM (complete main)
Параметр Endianness формата : Big
Идентификатор кодека : A_AC3
Продолжительность : 1 ч. 47 м.
Вид битрейта : Постоянный
Битрейт : 192 Кбит/сек
Каналы : 2 канала
Расположение каналов : Front: L R
Частота : 48,0 КГц
Битовая глубина : 16 бит
Метод сжатия : С потерями
Размер потока : 148 Мбайт (2%)
Заголовок : Dub
Язык : Russian
Default : Нет
Forced : Нет
Аудио #4
Идентификатор : 5
Формат : AC-3
Формат/Информация : Audio Coding 3
Расширение режима : CM (complete main)
Параметр Endianness формата : Big
Идентификатор кодека : A_AC3
Продолжительность : 1 ч. 47 м.
Вид битрейта : Постоянный
Битрейт : 192 Кбит/сек
Каналы : 2 канала
Расположение каналов : Front: L R
Частота : 48,0 КГц
Битовая глубина : 16 бит
Метод сжатия : С потерями
Размер потока : 148 Мбайт (2%)
Заголовок : MVO, студия Аскот
Язык : Russian
Default : Нет
Forced : Нет
Аудио #5
Идентификатор : 6
Формат : AC-3
Формат/Информация : Audio Coding 3
Расширение режима : CM (complete main)
Параметр Endianness формата : Big
Идентификатор кодека : A_AC3
Продолжительность : 1 ч. 47 м.
Вид битрейта : Постоянный
Битрейт : 192 Кбит/сек
Каналы : 2 канала
Расположение каналов : Front: L R
Частота : 48,0 КГц
Битовая глубина : 16 бит
Метод сжатия : С потерями
Размер потока : 148 Мбайт (2%)
Заголовок : DVO, НТВ
Язык : Russian
Default : Нет
Forced : Нет
Аудио #6
Идентификатор : 7
Формат : FLAC
Формат/Информация : Free Lossless Audio Codec
Идентификатор кодека : A_FLAC
Продолжительность : 1 ч. 47 м.
Вид битрейта : Переменный
Каналы : 2 канала
Частота : 48,0 КГц
Битовая глубина : 16 бит
Библиотека кодирования : libFLAC 1.2.1 (UTC 2007-09-17)
Язык : French
Default : Нет
Forced : Нет
Текст
Идентификатор : 8
Формат : UTF-8
Идентификатор кодека : S_TEXT/UTF8
Идентификатор кодека/Информация : UTF-8 Plain Text
Язык : English
Default : Нет
Forced : Нет
Меню
00:00:00.000 : en:00:00:00.000
00:06:45.167 : en:00:06:45.167
00:14:18.708 : en:00:14:18.708
00:22:09.167 : en:00:22:09.167
00:25:08.792 : en:00:25:08.792
00:35:54.208 : en:00:35:54.208
00:39:52.833 : en:00:39:52.833
00:43:40.333 : en:00:43:40.333
00:48:29.125 : en:00:48:29.125
00:53:42.833 : en:00:53:42.833
00:56:44.000 : en:00:56:44.000
01:04:13.417 : en:01:04:13.417
01:11:04.083 : en:01:11:04.083
01:13:47.833 : en:01:13:47.833
01:21:49.250 : en:01:21:49.250
01:31:18.875 : en:01:31:18.875
01:37:14.208 : en:01:37:14.208
01:45:45.833 : en:01:45:45.833
-

_________________
Показать сообщения:    

Текущее время: Сегодня 03:05

Часовой пояс: GMT



Вы не можете начинать темы
Вы не можете отвечать на сообщения
Вы не можете редактировать свои сообщения
Вы не можете удалять свои сообщения
Вы не можете голосовать в опросах
Вы не можете прикреплять файлы к сообщениям
Вы не можете скачивать файлы