Важное объявление!
У Нас Все раздачи мультитрекерные, при нуле пиров в релизах, можете смело вставать на закачку!
 
Автор Сообщение

Koralina

Стаж:
3 года 9 месяцев
Сообщений:
7

Репутация: 21

[+] [-]
Вне форума [Профиль] [ЛС]

Букашки (сезон 2) / Minuscule (season 2) (2011-2012) DVDRip-
Русское название: Букашки (сезон 2)
Оригинальное название: Minuscule (season 2)
Год выпуска: 2011-2012
Жанр: Комедия, Мультфильм, Семейный
Страна: Франция
Описание:
Как можно догадаться, основными героями второго сезона Minuscule по-прежнему будут антропоморфные насекомые, постоянно оказывающиеся в различных несвойственных им (или наоборот, традиционных) ситуациях. Можно не сомневаться, что непримиримая борьба мухи и черного паучка, сражению коих было посвящено несколько эпизодов первого сезона, продолжится и теперь. Ну и, конечно же, старые герои: трусливая сороконожка, работяга-гусеница, задиристая божья коровка, реактивные осы, самовлюбленный жук-навозник и многие другие.
Особенность видеоряда Minuscule - вышеупомянутая 3D-анимация, наложенная на реальные съёмки, делает его очень гармоничным. Вся окружающая природа отснята на натуральную камеру, а 3D-элементы – это преимущественно главные герои мультика, то есть насекомые.
Мультфильм добрый и непосредственный, не имеющий злой подоплеки. Сцен насилия в нем не наблюдается (если не считать эпизоды, когда персонажи по собственной вине попадают в неприятные ситуации).
Мультфильм Букашки не требуют дубляжа и даже посредственного перевода – в них отсутствуют диалоги. Это сделано специально, чтобы сериал могла понять самая разнообразная аудитория, в любой стране, не только та, которая разговаривает на французском языке. Городской шум в эпизодах если и присутствует, то звучит, как абракадабра, то есть не привязывается к какому-то определенному языку. А надписи на бутылках, пачках и прочем в основном бессмысленны и ничего конкретного не означают.
Доп.информация: Титры между сериями вырезаны, оставлены только начальные и конечные титры в каждой из шести частей.
Режиссер: Хелен Жиро / Helene Giraud, Томас Забо / Thomas Szabo
Продолжительность: 98 х ~00:05:00
Перевод: Не требуется
Сэмпл: Ссылка
Исходник DVD5, PAL 16:9 (720x576)

Видеокодек: Xvid
Битрейт видео: ~1 698 Kbps
Размер кадра: 720х400
Качество видео: DVDRip
Аудиокодек: AC3 6 ch
Битрейт аудио: 256 Kbps / 448 Kbps
Релиз группа:
Рип: CrimeanFox

Список серий и тех данные

Удивительное рядом (1 часть)

01 - Все дело в крыльях
02 - Бездомный
03 - Пульт управления
04 - Упрямый паук
05 - Сезон желудей
06 - Охотники за сосисками
07 - Маленькая Годзилла
08 - Медовая муха
09 - Миссия: пикник
10 - Овощной сад
11 - Сорока-воровка
12 - Жалкий преследователь
13 - Кузнечик, который не знал, как прыгать
Видеокодек: Xvid
Битрейт видео: ~1 461 Kbps
Размер кадра: 720х400
Качество видео: DVDRip
Аудиокодек: AC3 6 ch
Битрейт аудио: 256 Kbps

Медиаинфо

Format : AVI
Format/Info : Audio Video Interleave
File size : 630 MiB
Duration : 50mn 59s
Overall bit rate : 1 727 Kbps
Director : CrimeanFox
Writing library : VirtualDub build 32706/release
Video
ID : 0
Format : MPEG-4 Visual
Format profile : Advanced Simple@L5
Format settings, BVOP : 2
Format settings, QPel : No
Format settings, GMC : No warppoints
Format settings, Matrix : Default (MPEG)
Codec ID : XVID
Codec ID/Hint : XviD
Duration : 50mn 59s
Bit rate : 1 461 Kbps
Width : 720 pixels
Height : 400 pixels
Display aspect ratio : 16:9
Frame rate : 25.000 fps
Color space : YUV
Chroma subsampling : 4:2:0
Bit depth : 8 bits
Scan type : Progressive
Compression mode : Lossy
Bits/(Pixel*Frame) : 0.203
Stream size : 533 MiB (85%)
Writing library : XviD 1.2.1 (UTC 2008-12-04)
Audio
ID : 1
Format : AC-3
Format/Info : Audio Coding 3
Mode extension : CM (complete main)
Format settings, Endianness : Big
Codec ID : 2000
Duration : 50mn 59s
Bit rate mode : Constant
Bit rate : 256 Kbps
Channel(s) : 6 channels
Channel positions : Front: L C R, Side: L R, LFE
Sampling rate : 48.0 KHz
Bit depth : 16 bits
Compression mode : Lossy
Stream size : 93.4 MiB (15%)
Alignment : Aligned on interleaves
Interleave, duration : 40 ms (1.00 video frame)
Interleave, preload duration : 512 ms
Скриншоты:

Маленькие выдумщики (2 часть)

01 - Жевательная резинка
02 - День святого Валентина
03 - Акробатика
04 - Шляпа медузы
05 - Ночь улиток
06 - Охота за шоколадом!
07 - Ночной кошмар бабочки
08 - Картофельные чипсы
09 - Только бы один!
10 - Эффект бабочки
11 - МуХИ ОХОТЯТСЯ
12 - Запрыгивай!
13 - Паутина-батут
14 - Как пушечное ядро
15 - Рождественское яблоко
16 - Горошина в руке
17 - Осторожно, липко!
18 - Неправильная паутина
Видеокодек: Xvid
Битрейт видео: ~1 698 Kbps
Размер кадра: 720х400
Качество видео: DVDRip
Аудиокодек: AC3 6 ch
Битрейт аудио: 256 Kbps

Медиаинфо

Format : AVI
Format/Info : Audio Video Interleave
File size : 768 MiB
Duration : 54mn 41s
Overall bit rate : 1 963 Kbps
Director : CrimeanFox
Writing library : VirtualDub build 32706/release
Video
ID : 0
Format : MPEG-4 Visual
Format profile : Advanced Simple@L5
Format settings, BVOP : 2
Format settings, QPel : No
Format settings, GMC : No warppoints
Format settings, Matrix : Default (MPEG)
Codec ID : XVID
Codec ID/Hint : XviD
Duration : 54mn 41s
Bit rate : 1 698 Kbps
Width : 720 pixels
Height : 400 pixels
Display aspect ratio : 16:9
Frame rate : 25.000 fps
Color space : YUV
Chroma subsampling : 4:2:0
Bit depth : 8 bits
Scan type : Progressive
Compression mode : Lossy
Bits/(Pixel*Frame) : 0.236
Stream size : 664 MiB (86%)
Writing library : XviD 1.2.1 (UTC 2008-12-04)
Audio
ID : 1
Format : AC-3
Format/Info : Audio Coding 3
Mode extension : CM (complete main)
Format settings, Endianness : Big
Codec ID : 2000
Duration : 54mn 41s
Bit rate mode : Constant
Bit rate : 256 Kbps
Channel(s) : 6 channels
Channel positions : Front: L C R, Side: L R, LFE
Sampling rate : 48.0 KHz
Bit depth : 16 bits
Compression mode : Lossy
Stream size : 100 MiB (13%)
Alignment : Aligned on interleaves
Interleave, duration : 40 ms (1.00 video frame)
Interleave, preload duration : 512 ms
Скриншоты:

Открытия каждый день (3 часть)

01 - Домашние растения
02 - На полной скорости
03 - Беспокойный сосед
04 - Жажда
05 - Напряжение
06 - Глубоководные паучки
07 - Опыление
08 - Железный монстр
09 - Долгая дорога
10 - Рождественское полено
11 - Паучок-водитель
12 - Зеленый горошек на ужин
13 - Бешеная муха
14 - Бессердечная корова
15 - Жажда скорости
16 - Что посеешь, то и пожнешь
17 - Хорошо смеется тот, кто смеется последний
18 - Мухобойка
Видеокодек: Xvid
Битрейт видео: ~1 650 Kbps
Размер кадра: 720х400
Качество видео: DVDRip
Аудиокодек: AC3 6 ch
Битрейт аудио: 256 Kbps

Медиаинфо

Format : AVI
Format/Info : Audio Video Interleave
File size : 713 MiB
Duration : 52mn 1s
Overall bit rate : 1 916 Kbps
Director : CrimeanFox
Writing library : VirtualDub build 32706/release
Video
ID : 0
Format : MPEG-4 Visual
Format profile : Advanced Simple@L5
Format settings, BVOP : 2
Format settings, QPel : No
Format settings, GMC : No warppoints
Format settings, Matrix : Default (MPEG)
Codec ID : XVID
Codec ID/Hint : XviD
Duration : 52mn 1s
Bit rate : 1 650 Kbps
Width : 720 pixels
Height : 400 pixels
Display aspect ratio : 16:9
Frame rate : 25.000 fps
Color space : YUV
Chroma subsampling : 4:2:0
Bit depth : 8 bits
Scan type : Progressive
Compression mode : Lossy
Bits/(Pixel*Frame) : 0.229
Stream size : 614 MiB (86%)
Writing library : XviD 1.2.1 (UTC 2008-12-04)
Audio
ID : 1
Format : AC-3
Format/Info : Audio Coding 3
Mode extension : CM (complete main)
Format settings, Endianness : Big
Codec ID : 2000
Duration : 52mn 1s
Bit rate mode : Constant
Bit rate : 256 Kbps
Channel(s) : 6 channels
Channel positions : Front: L C R, Side: L R, LFE
Sampling rate : 48.0 KHz
Bit depth : 16 bits
Compression mode : Lossy
Stream size : 95.3 MiB (13%)
Alignment : Aligned on interleaves
Interleave, duration : 40 ms (1.00 video frame)
Interleave, preload duration : 512 ms
Скриншоты:

На полной скорости! (4 часть)

01 - Сетка от москитов
02 - Муха-волшебница
03 - Пончик
04 - Муравей со льдом
05 - Художник
06 - Путешествия в пространстве
07 - Рождественские свечи
08 - Вкусный снеговик
09 - На полной скорости
10 - Шоколадная муха
11 - Мечта о скорости
12 - Санки и муравей
13 - Оплошность
14 - Монстр заколдованного болота
15 - Мошенники!
16 - Происшествие в магазине
17 - Солнечный ожог
18 - Бежим!
19 - Вниз по трубе
20 - В порт!
21 - Сладкий сон
22 - Волшебное яблоко
23 - Веселая муха
Видеокодек: Xvid
Битрейт видео: ~ 1 603 Kbps
Размер кадра: 720х400
Качество видео: DVDRip
Аудиокодек: AC3 6 ch
Битрейт аудио: 448 Kbps

Медиаинфо

Format : AVI
Format/Info : Audio Video Interleave
File size : 843 MiB
Duration : 57mn 10s
Overall bit rate : 2 060 Kbps
Director : CrimeanFox
Writing library : VirtualDub build 32706/release
Video
ID : 0
Format : MPEG-4 Visual
Format profile : Advanced Simple@L5
Format settings, BVOP : 2
Format settings, QPel : No
Format settings, GMC : No warppoints
Format settings, Matrix : Default (MPEG)
Codec ID : XVID
Codec ID/Hint : XviD
Duration : 57mn 10s
Bit rate : 1 603 Kbps
Width : 720 pixels
Height : 400 pixels
Display aspect ratio : 16:9
Frame rate : 25.000 fps
Color space : YUV
Chroma subsampling : 4:2:0
Bit depth : 8 bits
Scan type : Progressive
Compression mode : Lossy
Bits/(Pixel*Frame) : 0.223
Stream size : 655 MiB (78%)
Writing library : XviD 1.2.1 (UTC 2008-12-04)
Audio
ID : 1
Format : AC-3
Format/Info : Audio Coding 3
Mode extension : CM (complete main)
Format settings, Endianness : Big
Codec ID : 2000
Duration : 57mn 9s
Bit rate mode : Constant
Bit rate : 448 Kbps
Channel(s) : 6 channels
Channel positions : Front: L C R, Side: L R, LFE
Sampling rate : 48.0 KHz
Bit depth : 16 bits
Compression mode : Lossy
Stream size : 183 MiB (22%)
Alignment : Aligned on interleaves
Interleave, duration : 40 ms (1.00 video frame)
Interleave, preload duration : 512 ms
Скриншоты:

Букашки Карибского моря (5 часть)

01 - Попрыгунчик
02 - Летняя шляпка
03 - Замок из песка
04 - Кража в магазине
05 - В снегу
06 - Муравьи на поезде
07 - В метро
08 - Матч
09 - Улитки-лыжники
10 - Москит Карибского моря
11 - Турбо-скорость
12 - Снежная морковка
13 - Загрязнение окружающей среды
14 - Метаморфозы
15 - SPECIAL: Муравей-Ромео и муравей-Джульетта
Видеокодек: Xvid
Битрейт видео: ~ 1 582 Kbps
Размер кадра: 720х400
Качество видео: DVDRip
Аудиокодек: AC3 6 ch
Битрейт аудио: 448 Kbps

Медиаинфо

Format : AVI
Format/Info : Audio Video Interleave
File size : 929 MiB
Duration : 1h 3mn
Overall bit rate : 2 040 Kbps
Director : CrimeanFox
Writing library : VirtualDub build 32706/release
Video
ID : 0
Format : MPEG-4 Visual
Format profile : Advanced Simple@L5
Format settings, BVOP : 2
Format settings, QPel : No
Format settings, GMC : No warppoints
Format settings, Matrix : Default (MPEG)
Codec ID : XVID
Codec ID/Hint : XviD
Duration : 1h 3mn
Bit rate : 1 582 Kbps
Width : 720 pixels
Height : 400 pixels
Display aspect ratio : 16:9
Frame rate : 25.000 fps
Color space : YUV
Chroma subsampling : 4:2:0
Bit depth : 8 bits
Scan type : Progressive
Compression mode : Lossy
Bits/(Pixel*Frame) : 0.220
Stream size : 720 MiB (78%)
Writing library : XviD 1.2.1 (UTC 2008-12-04)
Audio
ID : 1
Format : AC-3
Format/Info : Audio Coding 3
Mode extension : CM (complete main)
Format settings, Endianness : Big
Codec ID : 2000
Duration : 1h 3mn
Bit rate mode : Constant
Bit rate : 448 Kbps
Channel(s) : 6 channels
Channel positions : Front: L C R, Side: L R, LFE
Sampling rate : 48.0 KHz
Bit depth : 16 bits
Compression mode : Lossy
Stream size : 204 MiB (22%)
Alignment : Aligned on interleaves
Interleave, duration : 40 ms (1.00 video frame)
Interleave, preload duration : 512 ms
Скриншоты:

Лесные сказки (6 часть)

01 - Дети
02 - Белым-бело
03 - В ловушке
04 - Замороженный
05 - 12 разгневанных улиток
06 - Ничья!
07 - Лунатик
08 - Лабиринт
09 - Острый соус
10 - Зонтик и кокосовые пальмы
11 - SPECIAL: Ночь живых насекомых
Видеокодек: Xvid
Битрейт видео: ~ 1 601 Kbps
Размер кадра: 720х400
Качество видео: DVDRip
Аудиокодек: AC3 6 ch
Битрейт аудио: 448 Kbps

Медиаинфо

Format : AVI
Format/Info : Audio Video Interleave
File size : 925 MiB
Duration : 1h 2mn
Overall bit rate : 2 058 Kbps
Director : CrimeanFox
Writing library : VirtualDub build 32706/release
Video
ID : 0
Format : MPEG-4 Visual
Format profile : Advanced Simple@L5
Format settings, BVOP : 2
Format settings, QPel : No
Format settings, GMC : No warppoints
Format settings, Matrix : Default (MPEG)
Codec ID : XVID
Codec ID/Hint : XviD
Duration : 1h 2mn
Bit rate : 1 601 Kbps
Width : 720 pixels
Height : 400 pixels
Display aspect ratio : 16:9
Frame rate : 25.000 fps
Color space : YUV
Chroma subsampling : 4:2:0
Bit depth : 8 bits
Scan type : Progressive
Compression mode : Lossy
Bits/(Pixel*Frame) : 0.222
Stream size : 719 MiB (78%)
Writing library : XviD 1.2.1 (UTC 2008-12-04)
Audio
ID : 1
Format : AC-3
Format/Info : Audio Coding 3
Mode extension : CM (complete main)
Format settings, Endianness : Big
Codec ID : 2000
Duration : 1h 2mn
Bit rate mode : Constant
Bit rate : 448 Kbps
Channel(s) : 6 channels
Channel positions : Front: L C R, Side: L R, LFE
Sampling rate : 48.0 KHz
Bit depth : 16 bits
Compression mode : Lossy
Stream size : 201 MiB (22%)
Alignment : Aligned on interleaves
Interleave, duration : 40 ms (1.00 video frame)
Interleave, preload duration : 512 ms
Скриншоты:

Скриншоты:
Показать сообщения:    

Текущее время: Сегодня 12:43

Часовой пояс: GMT



Вы не можете начинать темы
Вы не можете отвечать на сообщения
Вы не можете редактировать свои сообщения
Вы не можете удалять свои сообщения
Вы не можете голосовать в опросах
Вы не можете прикреплять файлы к сообщениям
Вы не можете скачивать файлы