Важное объявление!
У Нас Все раздачи мультитрекерные, при нуле пиров в релизах, можете смело вставать на закачку!
 
Автор Сообщение

HUNTER

Стаж:
4 года 4 месяца
Сообщений:
56733

Репутация: 101

[+] [-]
Вне форума [Профиль] [ЛС]

Бронза / The Bronze
Страна: США
Студия: Duplass Brothers Productions
Жанр: драма, комедия
Год выпуска: 2015
Продолжительность: 01:40:10
Перевод: Профессиональный (многоголосый закадровый)
Cубтитры: Rus, Eng
Оригинальная аудиодорожка: английский
Режиссер: Брайан Бакли / Bryan Buckley
В ролях: Мелисса Рауш, Гэри Коул, Томас Миддлдитч, Себастьян Стэн, Сесили Стронг, Хейли Лу Ричардсон, Дэйл Рауль, Крэйг Килборн, Ольга Корбут, Dominique Moceanu
Описание: Хоуп Энн Грэгори чуть ли не с пелёнок занималась гимнастикой. Она упорно тренировалась, во всём себя ограничивала и мечтала стать чемпионкой, но вершина её достижений — бронза на Олимпийских играх 2004. И травма в придачу, которая поставила крест на спортивной карьере.
Десять лет спустя Хоуп живёт всё в том же городишке, где её каждая собака знает, носит всё тот же спортивный костюм, объедается фастфудом, сквернословит и постоянно ругается с отцом. Совершенно оторванная от жизни, без занятий, увлечений и целей, она всё-таки считает себя местным героем. Внезапно её бывшая тренер кончает с собой, и Хоуп выпадает шанс тренировать восходящую звезду гимнастики из её же городка. А нужна ли конкуренция уже состоявшемуся герою? Скорее всего — нет.
[img]https://rating.kinopoisk.ru/841337.gif[/img]
Тип релиза: BDRip 1080p
Контейнер: MKV
Видео: MPEG-4 AVC, 12.2 Mбит/с, 1920x1038, 23,976 fps
Аудио: Rus, AC3, 640 kb/s (6 ch), 48 kHz
Аудио 2: Eng, DTS, 1510 kb/s (6 ch), 48 kHz
Формат субтитров: softsub (SRT)

MediaInfo

x264 [info]: frame I:1376 Avg QP:12.87 size:251995
x264 [info]: frame P:35648 Avg QP:14.27 size:127509
x264 [info]: frame B:107072 Avg QP:16.42 size: 41910
Format : Matroska
Format version : Version 4 / Version 2
File size : 10.2 GiB
Duration : 1h 40mn
Overall bit rate : 14.6 Mbps
Movie name : Бронза. (Tonik)
Encoded date : UTC 2016-08-07 07:17:19
Writing application : mkvmerge v7.1.0 ('Good Love') 64bit built on Jul 27 2014 13:06:55
Writing library : libebml v1.3.0 + libmatroska v1.4.1
_STATISTICS_WRITING_APP : mkvmerge v7.1.0 ('Good Love') 64bit built on Jul 27 2014 13:06:55
_STATISTICS_WRITING_DATE_UTC : 2016-08-07 07:17:19
_STATISTICS_TAGS : BPS DURATION NUMBER_OF_FRAMES NUMBER_OF_BYTES
DURATION : 01:33:45.250000000
NUMBER_OF_FRAMES : 66
NUMBER_OF_BYTES : 3657
Video
ID : 1
Format : AVC
Format/Info : Advanced Video Codec
Format profile : High@L4.1
Format settings, CABAC : Yes
Format settings, ReFrames : 4 frames
Codec ID : V_MPEG4/ISO/AVC
Duration : 1h 40mn
Bit rate : 12.2 Mbps
Width : 1 920 pixels
Height : 1 038 pixels
Display aspect ratio : 1.85:1
Frame rate mode : Constant
Frame rate : 23.976 fps
Color space : YUV
Chroma subsampling : 4:2:0
Bit depth : 8 bits
Scan type : Progressive
Bits/(Pixel*Frame) : 0.255
Stream size : 8.53 GiB (83%)
Writing library : x264 core 146 r2538 121396c
Encoding settings : cabac=1 / ref=4 / deblock=1:-3:-3 / analyse=0x3:0x133 / me=umh / subme=11 / psy=1 / psy_rd=1.04:0.10 / mixed_ref=1 / me_range=32 / chroma_me=1 / trellis=2 / 8x8dct=1 / cqm=0 / deadzone=21,11 / fast_pskip=0 / chroma_qp_offset=-3 / threads=60 / lookahead_threads=8 / sliced_threads=0 / nr=0 / decimate=0 / interlaced=0 / bluray_compat=0 / constrained_intra=0 / bframes=9 / b_pyramid=2 / b_adapt=2 / b_bias=0 / direct=3 / weightb=1 / open_gop=0 / weightp=2 / keyint=240 / keyint_min=23 / scenecut=40 / intra_refresh=0 / rc_lookahead=150 / rc=crf / mbtree=0 / crf=15.9 / qcomp=0.60 / qpmin=0 / qpmax=69 / qpstep=4 / vbv_maxrate=62500 / vbv_bufsize=78125 / crf_max=0.0 / nal_hrd=none / filler=0 / ip_ratio=1.40 / pb_ratio=1.30 / aq=1:0.80
Default : Yes
Forced : No
Audio #1
ID : 2
Format : AC-3
Format/Info : Audio Coding 3
Mode extension : CM (complete main)
Format settings, Endianness : Big
Codec ID : A_AC3
Duration : 1h 40mn
Bit rate mode : Constant
Bit rate : 640 Kbps
Channel(s) : 6 channels
Channel positions : Front: L C R, Side: L R, LFE
Sampling rate : 48.0 KHz
Bit depth : 16 bits
Compression mode : Lossy
Stream size : 459 MiB (4%)
Language : Russian
Default : Yes
Forced : No
Audio #2
ID : 3
Format : DTS
Format/Info : Digital Theater Systems
Mode : 16
Format settings, Endianness : Big
Codec ID : A_DTS
Duration : 1h 40mn
Bit rate mode : Constant
Bit rate : 1 509 Kbps
Channel(s) : 6 channels
Channel positions : Front: L C R, Side: L R, LFE
Sampling rate : 48.0 KHz
Bit depth : 24 bits
Compression mode : Lossy
Stream size : 1.06 GiB (10%)
Language : English
Default : No
Forced : No
Text #1
ID : 4
Format : UTF-8
Codec ID : S_TEXT/UTF8
Codec ID/Info : UTF-8 Plain Text
Title : Forced
Language : Russian
Default : Yes
Forced : No
Text #2
ID : 5
Format : UTF-8
Codec ID : S_TEXT/UTF8
Codec ID/Info : UTF-8 Plain Text
Language : Russian
Default : No
Forced : No
Text #3
ID : 6
Format : UTF-8
Codec ID : S_TEXT/UTF8
Codec ID/Info : UTF-8 Plain Text
Language : English
Default : No
Forced : No
Text #4
ID : 7
Format : UTF-8
Codec ID : S_TEXT/UTF8
Codec ID/Info : UTF-8 Plain Text
Title : SDH
Language : English
Default : No
Forced : No
Menu
00:00:00.000 : en:00:00:00.000
00:06:01.278 : en:00:06:01.278
00:09:59.682 : en:00:09:59.682
00:15:20.294 : en:00:15:20.294
00:20:57.256 : en:00:20:57.256
00:26:36.303 : en:00:26:36.303
00:31:45.487 : en:00:31:45.487
00:36:00.325 : en:00:36:00.325
00:41:26.484 : en:00:41:26.484
00:47:07.033 : en:00:47:07.033
00:53:44.096 : en:00:53:44.096
01:00:50.105 : en:01:00:50.105
01:08:19.637 : en:01:08:19.637
01:15:04.500 : en:01:15:04.500
01:23:55.197 : en:01:23:55.197
01:30:50.528 : en:01:30:50.528

Скриншоты

Перекачайте, добавлены форс сабы.

_________________
Показать сообщения:    

Текущее время: Сегодня 18:05

Часовой пояс: GMT



Вы не можете начинать темы
Вы не можете отвечать на сообщения
Вы не можете редактировать свои сообщения
Вы не можете удалять свои сообщения
Вы не можете голосовать в опросах
Вы не можете прикреплять файлы к сообщениям
Вы не можете скачивать файлы