Важное объявление!
У Нас Все раздачи мультитрекерные, при нуле пиров в релизах, можете смело вставать на закачку!
 
Автор Сообщение

HUNTER

Стаж:
4 года 4 месяца
Сообщений:
56842

Репутация: 101

[+] [-]
Вне форума [Профиль] [ЛС]

Бриллиантовая рука-Полная реставрация изображения и звука. Исходные киноматериалы подготовлены Госфильмофондом России. Покадровая цифровая реставрация изображения, ремастеринг звука и авторинг проведены объединением «Крупный план»
Страна: СССР
Студия: Мосфильм
Жанр: комедия
Год выпуска: 1968
Продолжительность: 01:38:20
Cубтитры: нет
Оригинальная аудиодорожка: русский
Режиссер: Леонид Гайдай
В ролях: Юрий Никулин, Анатолий Папанов, Андрей Миронов, Нина Гребешкова, Нонна Мордюкова, Светлана Светличная, Станислав Чекан, Владимир Гуляев, Евгения Мельникова, Андрей Файт, Григорий Шпигель, Леонид Каневский, Татьяна Никулина, Роман Филиппов, Николай Трофимов, Александр Ячницкий, Лев Поляков, Герман Качин, Игорь Ясулович, Александра Лисютина, Дмитрий Николаев, Александр Хвыля, Георгий Светлани, Василий Куприянов, Иван Жеваго, Виктор Уральский, Максим Никулин
Описание: Эксцентрическая комедия в двух частях (1-я часть "Бриллиант почти не виден" и 2-я часть "Костяная нога"), с прологом и эпилогом о скромном труженике Семене Семеныче, вступившем в героический поединок с шайкой контрабандистов-валютчиков, уже четыре десятилетия остается одним из любимейших в народе кинофильмов. Феерический каскад трюков, шуток, музыкальных номеров в исполнении блистательных комедийных актеров неизменно "поражает" смехом любую аудиторию…
Релиз от:
Rip by_genkasper
Сэмпл: http://multi-up.com/618670
Дополнительно: Сохранены оригинальные чаптеры как на Blu-ray.
Тип релиза: BDRip 1080p
Контейнер: MKV
Видео: MPEG-4 AVC, 1920x816, 15000 кбит/с, 23.976 Кадр/с, 0.399
Аудио 1: АС3, 1 ch, 48.0 КГц, 224 Кбит/с (оригинальная до реставрации с Blu-ray)
Аудио 2: DTS, 6 ch, 48.0 КГц, 1510 кбит/с (реставрированная с Blu-ray)

MediaInfo

Полное имя : Brilliantovaya.ruka.1968.BDRip.1080p.by_genkasper.mkv
Формат : Matroska
Версия формата : Version 2
Размер файла : 11,5 Гбайт
Продолжительность : 1 ч. 38 м.
Общий поток : 16,7 Мбит/сек
Название фильма : Brilliantovaya.ruka.BDRip.720p.Uniongang.tv
Дата кодирования : UTC 2011-12-25 23:35:45
Программа кодирования : mkvmerge v5.2.0 ('I can't explain') built on Dec 18 2011 18:12:03
Библиотека кодирования : libebml v1.2.3 libmatroska v1.3.0
Видео
Идентификатор : 1
Формат : AVC
Формат/Информация : Advanced Video Codec
Профиль формата : High@L4.1
Параметр CABAC формата : Да
Параметр ReFrames формата : 4 кадра
Идентификатор кодека : V_MPEG4/ISO/AVC
Продолжительность : 1 ч. 38 м.
Битрейт : 15,0 Мбит/сек
Ширина : 1920 пикселей
Высота : 816 пикселей
Соотношение сторон : 2,35:1
Частота кадров : 23,976 кадра/сек
Цветовое пространство : YUV
Субдискретизация насыщенности : 4:2:0
Битовая глубина : 8 бит
Тип развёртки : Прогрессивная
Бит/(Пиксели*Кадры) : 0.399
Размер потока : 10,1 Гбайт (88%)
Библиотека кодирования : x264 core 115 r1936 7a9e08d
Настройки программы : cabac=1 / ref=4 / deblock=1:-1:-1 / analyse=0x3:0x113 / me=umh / subme=9 / psy=1 / psy_rd=1.00:0.10 / mixed_ref=1 / me_range=16 / chroma_me=1 / trellis=2 / 8x8dct=1 / cqm=0 / deadzone=21,11 / fast_pskip=0 / chroma_qp_offset=-3 / threads=9 / sliced_threads=0 / nr=0 / decimate=1 / interlaced=0 / bluray_compat=0 / constrained_intra=0 / bframes=10 / b_pyramid=2 / b_adapt=2 / b_bias=0 / direct=3 / weightb=1 / open_gop=0 / weightp=2 / keyint=250 / keyint_min=23 / scenecut=40 / intra_refresh=0 / rc_lookahead=50 / rc=2pass / mbtree=1 / bitrate=15000 / ratetol=1.0 / qcomp=0.70 / qpmin=0 / qpmax=69 / qpstep=4 / cplxblur=20.0 / qblur=0.5 / ip_ratio=1.40 / aq=1:1.00
Язык : English
Аудио #1
Идентификатор : 2
Формат : AC-3
Формат/Информация : Audio Coding 3
Расширение режима : CM (complete main)
Идентификатор кодека : A_AC3
Продолжительность : 1 ч. 38 м.
Вид битрейта : Постоянный
Битрейт : 224 Кбит/сек
Каналы : 1 канал
Расположение каналов : Front: C
Частота : 48,0 КГц
Битовая глубина : 16 бит
Метод сжатия : С потерями
Задержка видео : 24 мс.
Размер потока : 158 Мбайт (1%)
Заголовок : AC3, 1 ch mono, 224 kbps
Язык : Russian
Аудио #2
Идентификатор : 3
Формат : DTS
Формат/Информация : Digital Theater Systems
Идентификатор кодека : A_DTS
Продолжительность : 1 ч. 38 м.
Вид битрейта : Постоянный
Битрейт : 1510 Кбит/сек
Каналы : 6 каналов
Расположение каналов : Front: L C R, Side: L R, LFE
Частота : 48,0 КГц
Битовая глубина : 24 бит
Метод сжатия : С потерями
Задержка видео : 3 мс.
Размер потока : 1,04 Гбайт (9%)
Заголовок : DTS, 6 ch, 1510 kbps
Язык : Russian
Меню
00:00:00.000 : en:00:00:00.000
00:04:43.825 : en:00:04:43.825
00:08:27.549 : en:00:08:27.549
00:11:36.988 : en:00:11:36.988
00:15:58.332 : en:00:15:58.332
00:22:14.917 : en:00:22:14.917
00:28:26.705 : en:00:28:26.705
00:34:49.546 : en:00:34:49.546
00:39:05.343 : en:00:39:05.343
00:43:30.566 : en:00:43:30.566
00:49:45.566 : en:00:49:45.566
00:54:14.334 : en:00:54:14.334
00:58:53.572 : en:00:58:53.572
01:04:20.815 : en:01:04:20.815
01:10:20.341 : en:01:10:20.341
01:14:34.679 : en:01:14:34.679
01:22:27.025 : en:01:22:27.025
01:30:11.448 : en:01:30:11.448
01:33:01.451 : en:01:33:01.451
01:36:52.682 : en:01:36:52.682

log 2-nd pass

x264 [info]: frame I:799 Avg QP:18.93 size:246534 PSNR Mean Y:44.07 U:50.84 V:50.47 Avg:45.36 Global:45.05
x264 [info]: frame P:27245 Avg QP:21.66 size:140239 PSNR Mean Y:40.45 U:48.70 V:48.28 Avg:41.86 Global:41.62
x264 [info]: frame B:113436 Avg QP:22.97 size: 62115 PSNR Mean Y:39.01 U:48.41 V:47.97 Avg:40.50 Global:40.21
x264 [info]: consecutive B-frames: 0.9% 0.7% 4.1% 13.2% 12.3% 67.8% 1.0% 0.0% 0.0% 0.0% 0.0%
x264 [info]: mb I I16..4: 14.6% 57.5% 27.9%
x264 [info]: mb P I16..4: 2.8% 23.5% 3.0% P16..4: 35.3% 25.5% 9.3% 0.0% 0.0% skip: 0.5%
x264 [info]: mb B I16..4: 0.5% 3.2% 0.3% B16..8: 50.5% 11.4% 3.4% direct:12.6% skip:18.1% L0:47.0% L1:44.8% BI: 8.2%
x264 [info]: 8x8 transform intra:78.9% inter:38.1%
x264 [info]: direct mvs spatial:98.9% temporal:1.1%
x264 [info]: coded y,uvDC,uvAC intra: 99.1% 68.7% 22.2% inter: 53.0% 30.4% 1.3%
x264 [info]: i16 v,h,dc,p: 6% 4% 54% 37%
x264 [info]: i8 v,h,dc,ddl,ddr,vr,hd,vl,hu: 6% 9% 13% 8% 13% 10% 15% 10% 17%
x264 [info]: i4 v,h,dc,ddl,ddr,vr,hd,vl,hu: 6% 9% 10% 8% 12% 10% 16% 10% 20%
x264 [info]: i8c dc,h,v,p: 36% 28% 23% 13%
x264 [info]: Weighted P-Frames: Y:12.1% UV:5.5%
x264 [info]: ref P L0: 46.5% 13.6% 25.6% 12.4% 1.8% 0.1%
x264 [info]: ref B L0: 89.6% 7.5% 2.9%
x264 [info]: ref B L1: 98.0% 2.0%
x264 [info]: SSIM Mean Y:0.9404549 (12.252db)
x264 [info]: PSNR Mean Y:39.317 U:48.482 V:48.042 Avg:40.788

Скриншоты


Сравнение с исходником


------------------------------------- VS ------------------------------------------

[url=http://www. СПАМ Сравнение на хостинге [/url]

_________________
Показать сообщения:    

Текущее время: Сегодня 20:07

Часовой пояс: GMT



Вы не можете начинать темы
Вы не можете отвечать на сообщения
Вы не можете редактировать свои сообщения
Вы не можете удалять свои сообщения
Вы не можете голосовать в опросах
Вы не можете прикреплять файлы к сообщениям
Вы не можете скачивать файлы
Наши партнеры: интернет магазин Ивановского трикотажа textilla.ru