Важное объявление!
У Нас Все раздачи мультитрекерные, при нуле пиров в релизах, можете смело вставать на закачку!
 
Автор Сообщение

HUNTER

Стаж:
4 года 4 месяца
Сообщений:
56809

Репутация: 101

[+] [-]
Вне форума [Профиль] [ЛС]

Бриклберри
Brickleberry

-Год производства: 2012
Страна: USA
Жанр: мультсериал, комедия
Продолжительность: 00:22:00
Кол-во серий/сезонов: 1 Сезон: серий 1-10 из 10
Перевод: Профессиональный (двухголосый закадровый) (NewStudio)
Субтитры: Отсутствуют-Режиссер: Роджер Блэк / Roger Black, Вако Оджин / Waco O'Guin-Описание: Перед вами новый американский мультипликационный сериал, Бриклберри в хорошем качестве, в центре которого забавная группа лесников-раздолбаев, столкнувшихся с большой проблемой. Национальный парк, в котором они работали и практически все свое время проводили там, хотят закрыть и превратить в непонятно что. А в помощь нашим героям приходит еще один новенький работник, главная цель которого сохранить и полностью преобразить прекрасный заповедник...-Качество видео: WEBDL 720p
Формат видео: mkv
Видео кодек: AVC
Аудио кодек: AC3
Видео: 1280x720 (16/9), 23.976 fps, 2 518 Kbps (0.114 bit/pixel)
Аудио#1: AC-3, 48.0 KHz, 6 ch, 384 Kbps, CBR (Russian)
Аудио#2: AC-3, 48.0 KHz, 6 ch, 384 Kbps, CBR-

Список серий


01. Добро пожаловать в Бриклберри / Welcome to Brickleberry
02. Заметка недели / Weeks Notice
03. Спасенный "Шарами" / Saved by the Balls
04. Белкокролик / Squabbits
05. Race Off
06. Гей Бомба / Gay Bomb
07. Привет, Дотти / Hello Dottie
08. Нагота Стива / Steve's Bald
09. Daddy Issues
10. Дамба-Шоу / The Dam Show

Скриншоты

MediaInfo

Код: copyText_writeLink('this.parentNode.parentNode.nextSibling.nextSibling');
General
Unique ID : 188514453807157269074132428123049896251 (0x8DD2902AD747CA35AE796A98C6B1293B)
Complete name : D:\Торенты\Бриклберри Сезон 1 WEBDL 720p (NewStudio)\Brickleberry.s01e01.webdl.720p.NewStudio.mkv
Format : Matroska
Format version : Version 2
File size : 519 MiB
Duration : 21mn 38s
Overall bit rate : 3 352 Kbps
Encoded date : UTC 2012-10-01 17:45:44
Writing application : mkvmerge v5.7.0 ('The Whirlwind') built on Jul 8 2012 20:08:51
Writing library : libebml v1.2.3 + libmatroska v1.3.0
Video
ID : 1
Format : AVC
Format/Info : Advanced Video Codec
Format profile : [url=mailto:High@L3.1]High@L3.1[/url]
Format settings, CABAC : No
Format settings, ReFrames : 2 frames
Codec ID : V_MPEG4/ISO/AVC
Duration : 21mn 38s
Bit rate : 2 518 Kbps
Width : 1 280 pixels
Height : 720 pixels
Display aspect ratio : 16:9
Frame rate mode : Constant
Frame rate : 23.976 fps
Color space : YUV
Chroma subsampling : 4:2:0
Bit depth : 8 bits
Scan type : Progressive
Bits/(Pixel*Frame) : 0.114
Stream size : 390 MiB (75%)
Language : English
Default : Yes
Forced : No
Color primaries : BT.709
Transfer characteristics : BT.709
Matrix coefficients : BT.709
Audio #1
ID : 2
Format : AC-3
Format/Info : Audio Coding 3
Mode extension : CM (complete main)
Format settings, Endianness : Big
Codec ID : A_AC3
Duration : 21mn 38s
Bit rate mode : Constant
Bit rate : 384 Kbps
Channel(s) : 6 channels
Channel positions : Front: L C R, Side: L R, LFE
Sampling rate : 48.0 KHz
Bit depth : 16 bits
Compression mode : Lossy
Stream size : 59.4 MiB (11%)
Language : Russian
Default : Yes
Forced : No
Audio #2
ID : 3
Format : AC-3
Format/Info : Audio Coding 3
Mode extension : CM (complete main)
Format settings, Endianness : Big
Codec ID : A_AC3
Duration : 21mn 38s
Bit rate mode : Constant
Bit rate : 384 Kbps
Channel(s) : 6 channels
Channel positions : Front: L C R, Side: L R, LFE
Sampling rate : 48.0 KHz
Bit depth : 16 bits
Compression mode : Lossy
Stream size : 59.4 MiB (11%)
Language : English
Default : No
Forced : No

Внимание! Раздача ведётся путём добавления новых серий

Внимание! Раздача ведётся путём добавления новых серий; при каждом добавлении создётся новый торрент. Чтобы начать докачку новой серии, пользователям необходимо сделать следующее:
(1) остановить скачивание,
(2) удалить старый торрент у себя из клиента (старые серии удалять не надо),
(3) скачать новый торрент и запустить его у себя в клиенте вместо старого, при этом указать клиенту путь в старую папку куда и должно происходить скачивание новых серий.
Ваш клиент при этом должен произвести хеширование (проверку) старой папки (если не производит сам - помогите ему сделать это), и будет докачивать только те серии которых у вас ещё нет. Старые серии при этом не удаляются, а продолжают раздаваться!
Eсли вы уже удалили старые серии, то предотвратить повторную закачку старых серий можно, отжав галочку в соответсвующих местах при запуске нового торрента. По возможности, желательно не удалять старые серии как можно дольше, чтобы релизёр не столько продолжал раздавать старые серии, а смог сконцентрироваться на новых.

_________________
Показать сообщения:    

Текущее время: Сегодня 18:36

Часовой пояс: GMT



Вы не можете начинать темы
Вы не можете отвечать на сообщения
Вы не можете редактировать свои сообщения
Вы не можете удалять свои сообщения
Вы не можете голосовать в опросах
Вы не можете прикреплять файлы к сообщениям
Вы не можете скачивать файлы