Важное объявление!
У Нас Все раздачи мультитрекерные, при нуле пиров в релизах, можете смело вставать на закачку!
 
Автор Сообщение

Vanya_o3

[Профиль] [ЛС]

Бригада
Год выпуска: 2002
Производство: Аватар фильм
Жанр: драма, криминал
Продолжительность: ~00:52:00
Субтитры: нет
Режиссёр: Алексей Сидоров
В ролях: Сергей Безруков, Владимир Вдовиченков, Дмитрий Дюжев, Павел Майков, Андрей Панин, Екатерина Гусева, Леонид Куравлев, Николай Еременко мл., Александр Белявский, Валентина Теличкина, Алексей Кравченко, Дарья Повереннова, Ян Цапник, Светлана Чуйкина, Алексей Алексеев, Мария Аронова.
Описание: Это история четырех друзей детства, обычных московских парней, Саши Белого, Космоса, Пчелы и Фила, выросших в одном дворе. Друзья решили немного подзаработать, но незапланированное убийство вмиг перемешало все задуманное, поставив на кон их жизни.
Доп. информация: Источник имеет следующие особенности:
1) изображение разных эпизодов смещается относительно экрана по вертикали на несколько строк. Особенно это заметно при съемках спецэффектов (взрывы, перестрелки).
2) Есть ряд эпизодов с замедлением движений, для которых не выполнен деинтерлейс.
3) Титры в 14-й серии обрезаны.
Учитывая п.1, выполнен соответствующий crop без потери видеоинформации. Видеоряд на выходе не содержит черных полос по краям. Выполнен деинтерлейс эпизодов, описанных в п. 2. Неполные титры 14-й серии заменены полными титрами из 7-й серии, поскольку в этих сериях совпадает аудиодорожка в титрах.
Источник: http://rutracker.org/forum/viewtopic.php?t=2318323
Все раздачи сериала: http://rutracker.org/forum/tracker.php?f=9&nm=%...0%E8%E3%E0%E4%E0
Сэмпл: http://multi-up.com/845658
Качество: DVDRip-AVC
Формат: MKV
Видео кодек: H.264
Аудио кодек: AC3
Видео: x264 702х448@746x448 (DAR 1.667) pix 25 fps 1860 Kbps 0.23 bit/pix
Аудио: AC-3 48.0 KHz 6 channels 448 Kbps

MI

Серия_01.mkv-----------------------------------------------------------------------------
Общее
Уникальный идентификатор : 186093093420659038524182525288817140782
(0x8C0039E219648C35A98436DF79E8A42E)
Полное имя : D:\Temp\br\result\Серия_01.mkv
Формат : Matroska
Версия формата : Version 4 / Version 2
Размер файла : 842 Мбайт
Продолжительность : 51 м.
Общий поток : 2309 Кбит/сек
Дата кодирования : UTC 2013-03-22 04:36:33
Программа кодирования : mkvmerge v6.0.0 ('Coming Up For Air') built on Jan 20 2013 09:52:00
Библиотека кодирования : libebml v1.3.0 + libmatroska v1.4.0
Видео
Идентификатор : 1
Формат : AVC
Формат/Информация : Advanced Video Codec
Профиль формата : High@L4.1
Параметр CABAC формата : Да
Параметр ReFrames формата : 16 кадров
Идентификатор кодека : V_MPEG4/ISO/AVC
Продолжительность : 51 м.
Битрейт : 1860 Кбит/сек
Ширина : 702 пикселя
Высота : 448 пикселей
Соотношение сторон : 1,667
Режим частоты кадров : Постоянный
Частота кадров : 25,000 кадров/сек
Цветовое пространство : YUV
Субдискретизация насыщенности : 4:2:0
Битовая глубина : 8 бит
Тип развёртки : Прогрессивная
Бит/(Пиксели*Кадры) : 0.237
Размер потока : 662 Мбайт (79%)
Библиотека кодирования : x264 core 129 r2245 bc13772
Настройки программы : cabac=1 / ref=16 / deblock=1:-3:-2 / analyse=0x3:0x133 / me=umh / subme=10
/ psy=1 / psy_rd=1.00:0.15 / mixed_ref=1 / me_range=24 / chroma_me=1 / trellis=2 / 8x8dct=1 / cqm=0 / deadzone=21,11
/ fast_pskip=1 / chroma_qp_offset=-3 / threads=6 / lookahead_threads=1 / sliced_threads=0 / nr=0 / decimate=0 /
interlaced=0 / bluray_compat=0 / constrained_intra=0 / bframes=8 / b_pyramid=2 / b_adapt=2 / b_bias=0 / direct=3 /
weightb=1 / open_gop=0 / weightp=2 / keyint=250 / keyint_min=25 / scenecut=40 / intra_refresh=0 / rc_lookahead=60 /
rc=2pass / mbtree=1 / bitrate=1860 / ratetol=1.0 / qcomp=0.60 / qpmin=0 / qpmax=69 / qpstep=4 / cplxblur=20.0 /
qblur=0.5 / ip_ratio=1.40 / aq=1:1.00
Язык : Russian
Default : Да
Forced : Да
Аудио
Идентификатор : 2
Формат : AC-3
Формат/Информация : Audio Coding 3
Расширение режима : CM (complete main)
Параметр Endianness формата : Big
Идентификатор кодека : A_AC3
Продолжительность : 51 м.
Вид битрейта : Постоянный
Битрейт : 448 Кбит/сек
Каналы : 6 каналов
Расположение каналов : Front: L C R, Side: L R, LFE
Частота : 48,0 КГц
Битовая глубина : 16 бит
Метод сжатия : С потерями
Задержка видео : 500 мс.
Размер потока : 163 Мбайт (19%)
Язык : Russian
Default : Да
Forced : Да
Серия_02.mkv-----------------------------------------------------------------------------
General
Unique ID : 179161825196417430564591078784151053950
(0x86C94FF9B01B09BCB9D384459DA7E67E)
Complete name : D:\Temp\br\result\Серия_02.mkv
Format : Matroska
Format version : Version 4 / Version 2
File size : 855 MiB
Duration : 51mn 46s
Overall bit rate : 2 309 Kbps
Encoded date : UTC 2013-03-21 04:54:26
Writing application : mkvmerge v6.0.0 ('Coming Up For Air') built on Jan 20 2013 09:52:00
Writing library : libebml v1.3.0 + libmatroska v1.4.0
Video
ID : 1
Format : AVC
Format/Info : Advanced Video Codec
Format profile : High@L4.1
Format settings, CABAC : Yes
Format settings, ReFrames : 16 frames
Codec ID : V_MPEG4/ISO/AVC
Duration : 51mn 46s
Bit rate : 1 860 Kbps
Width : 702 pixels
Height : 448 pixels
Display aspect ratio : 1.667
Frame rate mode : Constant
Frame rate : 25.000 fps
Color space : YUV
Chroma subsampling : 4:2:0
Bit depth : 8 bits
Scan type : Progressive
Bits/(Pixel*Frame) : 0.237
Stream size : 672 MiB (79%)
Writing library : x264 core 129 r2245 bc13772
Encoding settings : cabac=1 / ref=16 / deblock=1:-3:-2 / analyse=0x3:0x133 / me=umh / subme=10
/ psy=1 / psy_rd=1.00:0.15 / mixed_ref=1 / me_range=24 / chroma_me=1 / trellis=2 / 8x8dct=1 / cqm=0 / deadzone=21,11
/ fast_pskip=1 / chroma_qp_offset=-3 / threads=6 / lookahead_threads=1 / sliced_threads=0 / nr=0 / decimate=0 /
interlaced=0 / bluray_compat=0 / constrained_intra=0 / bframes=8 / b_pyramid=2 / b_adapt=2 / b_bias=0 / direct=3 /
weightb=1 / open_gop=0 / weightp=2 / keyint=250 / keyint_min=25 / scenecut=40 / intra_refresh=0 / rc_lookahead=60 /
rc=2pass / mbtree=1 / bitrate=1860 / ratetol=1.0 / qcomp=0.60 / qpmin=0 / qpmax=69 / qpstep=4 / cplxblur=20.0 /
qblur=0.5 / ip_ratio=1.40 / aq=1:1.00
Language : Russian
Default : Yes
Forced : Yes
Audio
ID : 2
Format : AC-3
Format/Info : Audio Coding 3
Mode extension : CM (complete main)
Format settings, Endianness : Big
Codec ID : A_AC3
Duration : 51mn 46s
Bit rate mode : Constant
Bit rate : 448 Kbps
Channel(s) : 6 channels
Channel positions : Front: L C R, Side: L R, LFE
Sampling rate : 48.0 KHz
Bit depth : 16 bits
Compression mode : Lossy
Delay relative to video : 500ms
Stream size : 166 MiB (19%)
Language : Russian
Default : Yes
Forced : Yes
Серия_03.mkv-----------------------------------------------------------------------------
General
Unique ID : 240025263370305478649025718838529248170
(0xB4932F289C8314EEBE3FF1D4A6D64BAA)
Complete name : D:\Temp\br\result\Серия_03.mkv
Format : Matroska
Format version : Version 4 / Version 2
File size : 876 MiB
Duration : 53mn 9s
Overall bit rate : 2 305 Kbps
Encoded date : UTC 2013-03-21 12:17:40
Writing application : mkvmerge v6.0.0 ('Coming Up For Air') built on Jan 20 2013 09:52:00
Writing library : libebml v1.3.0 + libmatroska v1.4.0
Video
ID : 1
Format : AVC
Format/Info : Advanced Video Codec
Format profile : High@L4.1
Format settings, CABAC : Yes
Format settings, ReFrames : 16 frames
Codec ID : V_MPEG4/ISO/AVC
Duration : 53mn 9s
Bit rate : 1 860 Kbps
Width : 702 pixels
Height : 440 pixels
Display aspect ratio : 1.666
Original display aspect ratio : 1.667
Frame rate mode : Constant
Frame rate : 25.000 fps
Color space : YUV
Chroma subsampling : 4:2:0
Bit depth : 8 bits
Scan type : Progressive
Bits/(Pixel*Frame) : 0.241
Stream size : 689 MiB (79%)
Writing library : x264 core 129 r2245 bc13772
Encoding settings : cabac=1 / ref=16 / deblock=1:-3:-2 / analyse=0x3:0x133 / me=umh / subme=10
/ psy=1 / psy_rd=1.00:0.15 / mixed_ref=1 / me_range=24 / chroma_me=1 / trellis=2 / 8x8dct=1 / cqm=0 / deadzone=21,11
/ fast_pskip=1 / chroma_qp_offset=-3 / threads=6 / lookahead_threads=1 / sliced_threads=0 / nr=0 / decimate=0 /
interlaced=0 / bluray_compat=0 / constrained_intra=0 / bframes=8 / b_pyramid=2 / b_adapt=2 / b_bias=0 / direct=3 /
weightb=1 / open_gop=0 / weightp=2 / keyint=250 / keyint_min=25 / scenecut=40 / intra_refresh=0 / rc_lookahead=60 /
rc=2pass / mbtree=1 / bitrate=1860 / ratetol=1.0 / qcomp=0.60 / qpmin=0 / qpmax=69 / qpstep=4 / cplxblur=20.0 /
qblur=0.5 / ip_ratio=1.40 / aq=1:1.00
Language : Russian
Default : Yes
Forced : Yes
Audio
ID : 2
Format : AC-3
Format/Info : Audio Coding 3
Mode extension : CM (complete main)
Format settings, Endianness : Big
Codec ID : A_AC3
Duration : 53mn 9s
Bit rate mode : Constant
Bit rate : 448 Kbps
Channel(s) : 6 channels
Channel positions : Front: L C R, Side: L R, LFE
Sampling rate : 48.0 KHz
Bit depth : 16 bits
Compression mode : Lossy
Delay relative to video : 500ms
Stream size : 170 MiB (19%)
Language : Russian
Default : Yes
Forced : Yes
Серия_04.mkv-----------------------------------------------------------------------------
Общее
Уникальный идентификатор : 236879606509815211040242040430364974272
(0xB2355A4D1D9D1BB8BF0978DC2DAFDCC0)
Полное имя : D:\Temp\br\result\Серия_04.mkv
Формат : Matroska
Версия формата : Version 4 / Version 2
Размер файла : 846 Мбайт
Продолжительность : 51 м.
Общий поток : 2306 Кбит/сек
Дата кодирования : UTC 2013-03-22 04:46:52
Программа кодирования : mkvmerge v6.0.0 ('Coming Up For Air') built on Jan 20 2013 09:52:00
Библиотека кодирования : libebml v1.3.0 + libmatroska v1.4.0
Видео
Идентификатор : 1
Формат : AVC
Формат/Информация : Advanced Video Codec
Профиль формата : High@L4.1
Параметр CABAC формата : Да
Параметр ReFrames формата : 16 кадров
Идентификатор кодека : V_MPEG4/ISO/AVC
Продолжительность : 51 м.
Битрейт : 1860 Кбит/сек
Ширина : 702 пикселя
Высота : 448 пикселей
Соотношение сторон : 1,667
Режим частоты кадров : Постоянный
Частота кадров : 25,000 кадров/сек
Цветовое пространство : YUV
Субдискретизация насыщенности : 4:2:0
Битовая глубина : 8 бит
Тип развёртки : Прогрессивная
Бит/(Пиксели*Кадры) : 0.237
Размер потока : 665 Мбайт (79%)
Библиотека кодирования : x264 core 129 r2245 bc13772
Настройки программы : cabac=1 / ref=16 / deblock=1:-3:-2 / analyse=0x3:0x133 / me=umh / subme=10
/ psy=1 / psy_rd=1.00:0.15 / mixed_ref=1 / me_range=24 / chroma_me=1 / trellis=2 / 8x8dct=1 / cqm=0 / deadzone=21,11
/ fast_pskip=1 / chroma_qp_offset=-3 / threads=6 / lookahead_threads=1 / sliced_threads=0 / nr=0 / decimate=0 /
interlaced=0 / bluray_compat=0 / constrained_intra=0 / bframes=8 / b_pyramid=2 / b_adapt=2 / b_bias=0 / direct=3 /
weightb=1 / open_gop=0 / weightp=2 / keyint=250 / keyint_min=25 / scenecut=40 / intra_refresh=0 / rc_lookahead=60 /
rc=2pass / mbtree=1 / bitrate=1860 / ratetol=1.0 / qcomp=0.60 / qpmin=0 / qpmax=69 / qpstep=4 / cplxblur=20.0 /
qblur=0.5 / ip_ratio=1.40 / aq=1:1.00
Язык : Russian
Default : Да
Forced : Да
Аудио
Идентификатор : 2
Формат : AC-3
Формат/Информация : Audio Coding 3
Расширение режима : CM (complete main)
Параметр Endianness формата : Big
Идентификатор кодека : A_AC3
Продолжительность : 51 м.
Вид битрейта : Постоянный
Битрейт : 448 Кбит/сек
Каналы : 6 каналов
Расположение каналов : Front: L C R, Side: L R, LFE
Частота : 48,0 КГц
Битовая глубина : 16 бит
Метод сжатия : С потерями
Задержка видео : 835 мс.
Размер потока : 164 Мбайт (19%)
Язык : Russian
Default : Да
Forced : Да
Серия_05.mkv-----------------------------------------------------------------------------
General
Unique ID : 228099561165535341935973392207849183462
(0xAB9A60A4D33053D089D01B197057D8E6)
Complete name : D:\Temp\br\result\Серия_05.mkv
Format : Matroska
Format version : Version 4 / Version 2
File size : 848 MiB
Duration : 51mn 22s
Overall bit rate : 2 308 Kbps
Encoded date : UTC 2013-03-21 04:49:26
Writing application : mkvmerge v6.0.0 ('Coming Up For Air') built on Jan 20 2013 09:52:00
Writing library : libebml v1.3.0 + libmatroska v1.4.0
Video
ID : 1
Format : AVC
Format/Info : Advanced Video Codec
Format profile : High@L4.1
Format settings, CABAC : Yes
Format settings, ReFrames : 16 frames
Codec ID : V_MPEG4/ISO/AVC
Duration : 51mn 22s
Bit rate : 1 860 Kbps
Width : 702 pixels
Height : 448 pixels
Display aspect ratio : 1.667
Frame rate mode : Constant
Frame rate : 25.000 fps
Color space : YUV
Chroma subsampling : 4:2:0
Bit depth : 8 bits
Scan type : Progressive
Bits/(Pixel*Frame) : 0.237
Stream size : 667 MiB (79%)
Writing library : x264 core 129 r2245 bc13772
Encoding settings : cabac=1 / ref=16 / deblock=1:-3:-2 / analyse=0x3:0x133 / me=umh / subme=10
/ psy=1 / psy_rd=1.00:0.15 / mixed_ref=1 / me_range=24 / chroma_me=1 / trellis=2 / 8x8dct=1 / cqm=0 / deadzone=21,11
/ fast_pskip=1 / chroma_qp_offset=-3 / threads=6 / lookahead_threads=1 / sliced_threads=0 / nr=0 / decimate=0 /
interlaced=0 / bluray_compat=0 / constrained_intra=0 / bframes=8 / b_pyramid=2 / b_adapt=2 / b_bias=0 / direct=3 /
weightb=1 / open_gop=0 / weightp=2 / keyint=250 / keyint_min=25 / scenecut=40 / intra_refresh=0 / rc_lookahead=60 /
rc=2pass / mbtree=1 / bitrate=1860 / ratetol=1.0 / qcomp=0.60 / qpmin=0 / qpmax=69 / qpstep=4 / cplxblur=20.0 /
qblur=0.5 / ip_ratio=1.40 / aq=1:1.00
Language : Russian
Default : Yes
Forced : Yes
Audio
ID : 2
Format : AC-3
Format/Info : Audio Coding 3
Mode extension : CM (complete main)
Format settings, Endianness : Big
Codec ID : A_AC3
Duration : 51mn 22s
Bit rate mode : Constant
Bit rate : 448 Kbps
Channel(s) : 6 channels
Channel positions : Front: L C R, Side: L R, LFE
Sampling rate : 48.0 KHz
Bit depth : 16 bits
Compression mode : Lossy
Delay relative to video : 500ms
Stream size : 165 MiB (19%)
Language : Russian
Default : Yes
Forced : Yes
Серия_06.mkv-----------------------------------------------------------------------------
Общее
Уникальный идентификатор : 253229125474876013209203311717916031937
(0xBE8227D2682F72198002C6B1D7D33BC1)
Полное имя : D:\Temp\br\result\Серия_06.mkv
Формат : Matroska
Версия формата : Version 4 / Version 2
Размер файла : 847 Мбайт
Продолжительность : 51 м.
Общий поток : 2309 Кбит/сек
Дата кодирования : UTC 2013-03-22 05:06:41
Программа кодирования : mkvmerge v6.0.0 ('Coming Up For Air') built on Jan 20 2013 09:52:00
Библиотека кодирования : libebml v1.3.0 + libmatroska v1.4.0
Видео
Идентификатор : 1
Формат : AVC
Формат/Информация : Advanced Video Codec
Профиль формата : High@L4.1
Параметр CABAC формата : Да
Параметр ReFrames формата : 16 кадров
Идентификатор кодека : V_MPEG4/ISO/AVC
Продолжительность : 51 м.
Битрейт : 1860 Кбит/сек
Ширина : 702 пикселя
Высота : 448 пикселей
Соотношение сторон : 1,667
Режим частоты кадров : Постоянный
Частота кадров : 25,000 кадров/сек
Цветовое пространство : YUV
Субдискретизация насыщенности : 4:2:0
Битовая глубина : 8 бит
Тип развёртки : Прогрессивная
Бит/(Пиксели*Кадры) : 0.237
Размер потока : 666 Мбайт (79%)
Библиотека кодирования : x264 core 129 r2245 bc13772
Настройки программы : cabac=1 / ref=16 / deblock=1:-3:-2 / analyse=0x3:0x133 / me=umh / subme=10
/ psy=1 / psy_rd=1.00:0.15 / mixed_ref=1 / me_range=24 / chroma_me=1 / trellis=2 / 8x8dct=1 / cqm=0 / deadzone=21,11
/ fast_pskip=1 / chroma_qp_offset=-3 / threads=6 / lookahead_threads=1 / sliced_threads=0 / nr=0 / decimate=0 /
interlaced=0 / bluray_compat=0 / constrained_intra=0 / bframes=8 / b_pyramid=2 / b_adapt=2 / b_bias=0 / direct=3 /
weightb=1 / open_gop=0 / weightp=2 / keyint=250 / keyint_min=25 / scenecut=40 / intra_refresh=0 / rc_lookahead=60 /
rc=2pass / mbtree=1 / bitrate=1860 / ratetol=1.0 / qcomp=0.60 / qpmin=0 / qpmax=69 / qpstep=4 / cplxblur=20.0 /
qblur=0.5 / ip_ratio=1.40 / aq=1:1.00
Язык : Russian
Default : Да
Forced : Да
Аудио
Идентификатор : 2
Формат : AC-3
Формат/Информация : Audio Coding 3
Расширение режима : CM (complete main)
Параметр Endianness формата : Big
Идентификатор кодека : A_AC3
Продолжительность : 51 м.
Вид битрейта : Постоянный
Битрейт : 448 Кбит/сек
Каналы : 6 каналов
Расположение каналов : Front: L C R, Side: L R, LFE
Частота : 48,0 КГц
Битовая глубина : 16 бит
Метод сжатия : С потерями
Задержка видео : 500 мс.
Размер потока : 164 Мбайт (19%)
Язык : Russian
Default : Да
Forced : Да
Серия_07.mkv-----------------------------------------------------------------------------
Общее
Уникальный идентификатор : 184216984623393767042848351421261860072
(0x8A96E693F41A8952A9B5DDC9ADCACCE8)
Полное имя : D:\Temp\br\result\Серия_07.mkv
Формат : Matroska
Версия формата : Version 4 / Version 2
Размер файла : 870 Мбайт
Продолжительность : 52 м.
Общий поток : 2308 Кбит/сек
Дата кодирования : UTC 2013-03-22 10:13:55
Программа кодирования : mkvmerge v6.0.0 ('Coming Up For Air') built on Jan 20 2013 09:52:00
Библиотека кодирования : libebml v1.3.0 + libmatroska v1.4.0
Видео
Идентификатор : 1
Формат : AVC
Формат/Информация : Advanced Video Codec
Профиль формата : High@L4.1
Параметр CABAC формата : Да
Параметр ReFrames формата : 16 кадров
Идентификатор кодека : V_MPEG4/ISO/AVC
Продолжительность : 52 м.
Битрейт : 1860 Кбит/сек
Ширина : 702 пикселя
Высота : 448 пикселей
Соотношение сторон : 1,667
Режим частоты кадров : Постоянный
Частота кадров : 25,000 кадров/сек
Цветовое пространство : YUV
Субдискретизация насыщенности : 4:2:0
Битовая глубина : 8 бит
Тип развёртки : Прогрессивная
Бит/(Пиксели*Кадры) : 0.237
Размер потока : 684 Мбайт (79%)
Библиотека кодирования : x264 core 129 r2245 bc13772
Настройки программы : cabac=1 / ref=16 / deblock=1:-3:-2 / analyse=0x3:0x133 / me=umh / subme=10
/ psy=1 / psy_rd=1.00:0.15 / mixed_ref=1 / me_range=24 / chroma_me=1 / trellis=2 / 8x8dct=1 / cqm=0 / deadzone=21,11
/ fast_pskip=1 / chroma_qp_offset=-3 / threads=6 / lookahead_threads=1 / sliced_threads=0 / nr=0 / decimate=0 /
interlaced=0 / bluray_compat=0 / constrained_intra=0 / bframes=8 / b_pyramid=2 / b_adapt=2 / b_bias=0 / direct=3 /
weightb=1 / open_gop=0 / weightp=2 / keyint=250 / keyint_min=25 / scenecut=40 / intra_refresh=0 / rc_lookahead=60 /
rc=2pass / mbtree=1 / bitrate=1860 / ratetol=1.0 / qcomp=0.60 / qpmin=0 / qpmax=69 / qpstep=4 / cplxblur=20.0 /
qblur=0.5 / ip_ratio=1.40 / aq=1:1.00
Язык : Russian
Default : Да
Forced : Да
Аудио
Идентификатор : 2
Формат : AC-3
Формат/Информация : Audio Coding 3
Расширение режима : CM (complete main)
Параметр Endianness формата : Big
Идентификатор кодека : A_AC3
Продолжительность : 52 м.
Вид битрейта : Постоянный
Битрейт : 448 Кбит/сек
Каналы : 6 каналов
Расположение каналов : Front: L C R, Side: L R, LFE
Частота : 48,0 КГц
Битовая глубина : 16 бит
Метод сжатия : С потерями
Задержка видео : 10 с.
Размер потока : 169 Мбайт (19%)
Язык : Russian
Default : Да
Forced : Да
Серия_08.mkv-----------------------------------------------------------------------------
General
Unique ID : 178019654905489298868002990772080531258
(0x85ED56A1DAA13C79A07B521649C6D73A)
Complete name : D:\Temp\br\result\Серия_08.mkv
Format : Matroska
Format version : Version 4 / Version 2
File size : 860 MiB
Duration : 52mn 6s
Overall bit rate : 2 307 Kbps
Encoded date : UTC 2013-03-21 06:14:12
Writing application : mkvmerge v6.0.0 ('Coming Up For Air') built on Jan 20 2013 09:52:00
Writing library : libebml v1.3.0 + libmatroska v1.4.0
Video
ID : 1
Format : AVC
Format/Info : Advanced Video Codec
Format profile : High@L4.1
Format settings, CABAC : Yes
Format settings, ReFrames : 16 frames
Codec ID : V_MPEG4/ISO/AVC
Duration : 52mn 6s
Bit rate : 1 860 Kbps
Width : 702 pixels
Height : 448 pixels
Display aspect ratio : 1.667
Frame rate mode : Constant
Frame rate : 25.000 fps
Color space : YUV
Chroma subsampling : 4:2:0
Bit depth : 8 bits
Scan type : Progressive
Bits/(Pixel*Frame) : 0.237
Stream size : 676 MiB (79%)
Writing library : x264 core 129 r2245 bc13772
Encoding settings : cabac=1 / ref=16 / deblock=1:-3:-2 / analyse=0x3:0x133 / me=umh / subme=10
/ psy=1 / psy_rd=1.00:0.15 / mixed_ref=1 / me_range=24 / chroma_me=1 / trellis=2 / 8x8dct=1 / cqm=0 / deadzone=21,11
/ fast_pskip=1 / chroma_qp_offset=-3 / threads=6 / lookahead_threads=1 / sliced_threads=0 / nr=0 / decimate=0 /
interlaced=0 / bluray_compat=0 / constrained_intra=0 / bframes=8 / b_pyramid=2 / b_adapt=2 / b_bias=0 / direct=3 /
weightb=1 / open_gop=0 / weightp=2 / keyint=250 / keyint_min=25 / scenecut=40 / intra_refresh=0 / rc_lookahead=60 /
rc=2pass / mbtree=1 / bitrate=1860 / ratetol=1.0 / qcomp=0.60 / qpmin=0 / qpmax=69 / qpstep=4 / cplxblur=20.0 /
qblur=0.5 / ip_ratio=1.40 / aq=1:1.00
Language : Russian
Default : Yes
Forced : Yes
Audio
ID : 2
Format : AC-3
Format/Info : Audio Coding 3
Mode extension : CM (complete main)
Format settings, Endianness : Big
Codec ID : A_AC3
Duration : 52mn 6s
Bit rate mode : Constant
Bit rate : 448 Kbps
Channel(s) : 6 channels
Channel positions : Front: L C R, Side: L R, LFE
Sampling rate : 48.0 KHz
Bit depth : 16 bits
Compression mode : Lossy
Delay relative to video : 10s 860ms
Stream size : 167 MiB (19%)
Language : Russian
Default : Yes
Forced : Yes
Серия_09.mkv-----------------------------------------------------------------------------
Общее
Уникальный идентификатор : 235089290038312916710251815957820160633
(0xB0DC8CE25BB410BAB57117B7867D3A79)
Полное имя : D:\Temp\br\result\Серия_09.mkv
Формат : Matroska
Версия формата : Version 4 / Version 2
Размер файла : 855 Мбайт
Продолжительность : 51 м.
Общий поток : 2306 Кбит/сек
Дата кодирования : UTC 2013-03-22 04:40:56
Программа кодирования : mkvmerge v6.0.0 ('Coming Up For Air') built on Jan 20 2013 09:52:00
Библиотека кодирования : libebml v1.3.0 + libmatroska v1.4.0
Видео
Идентификатор : 1
Формат : AVC
Формат/Информация : Advanced Video Codec
Профиль формата : High@L4.1
Параметр CABAC формата : Да
Параметр ReFrames формата : 16 кадров
Идентификатор кодека : V_MPEG4/ISO/AVC
Продолжительность : 51 м.
Битрейт : 1860 Кбит/сек
Ширина : 702 пикселя
Высота : 440 пикселей
Соотношение сторон : 1,666
Соотношение сторон в оригинале : 1,667
Режим частоты кадров : Постоянный
Частота кадров : 25,000 кадров/сек
Цветовое пространство : YUV
Субдискретизация насыщенности : 4:2:0
Битовая глубина : 8 бит
Тип развёртки : Прогрессивная
Бит/(Пиксели*Кадры) : 0.241
Размер потока : 672 Мбайт (79%)
Библиотека кодирования : x264 core 129 r2245 bc13772
Настройки программы : cabac=1 / ref=16 / deblock=1:-3:-2 / analyse=0x3:0x133 / me=umh / subme=10
/ psy=1 / psy_rd=1.00:0.15 / mixed_ref=1 / me_range=24 / chroma_me=1 / trellis=2 / 8x8dct=1 / cqm=0 / deadzone=21,11
/ fast_pskip=1 / chroma_qp_offset=-3 / threads=6 / lookahead_threads=1 / sliced_threads=0 / nr=0 / decimate=0 /
interlaced=0 / bluray_compat=0 / constrained_intra=0 / bframes=8 / b_pyramid=2 / b_adapt=2 / b_bias=0 / direct=3 /
weightb=1 / open_gop=0 / weightp=2 / keyint=250 / keyint_min=25 / scenecut=40 / intra_refresh=0 / rc_lookahead=60 /
rc=2pass / mbtree=1 / bitrate=1860 / ratetol=1.0 / qcomp=0.60 / qpmin=0 / qpmax=69 / qpstep=4 / cplxblur=20.0 /
qblur=0.5 / ip_ratio=1.40 / aq=1:1.00
Язык : English
Default : Да
Forced : Да
Аудио
Идентификатор : 2
Формат : AC-3
Формат/Информация : Audio Coding 3
Расширение режима : CM (complete main)
Параметр Endianness формата : Big
Идентификатор кодека : A_AC3
Продолжительность : 51 м.
Вид битрейта : Постоянный
Битрейт : 448 Кбит/сек
Каналы : 6 каналов
Расположение каналов : Front: L C R, Side: L R, LFE
Частота : 48,0 КГц
Битовая глубина : 16 бит
Метод сжатия : С потерями
Задержка видео : 4 с. 218 мс.
Размер потока : 166 Мбайт (19%)
Язык : Russian
Default : Да
Forced : Да
Серия_10.mkv-----------------------------------------------------------------------------
General
Unique ID : 192957517294475512093669724060776871905
(0x912A441C31A3AF79B71FDECE9E7737E1)
Complete name : D:\Temp\br\result\Серия_10.mkv
Format : Matroska
Format version : Version 4 / Version 2
File size : 858 MiB
Duration : 52mn 0s
Overall bit rate : 2 307 Kbps
Encoded date : UTC 2013-03-21 08:37:47
Writing application : mkvmerge v6.0.0 ('Coming Up For Air') built on Jan 20 2013 09:52:00
Writing library : libebml v1.3.0 + libmatroska v1.4.0
Video
ID : 1
Format : AVC
Format/Info : Advanced Video Codec
Format profile : High@L4.1
Format settings, CABAC : Yes
Format settings, ReFrames : 16 frames
Codec ID : V_MPEG4/ISO/AVC
Duration : 52mn 0s
Bit rate : 1 860 Kbps
Width : 702 pixels
Height : 448 pixels
Display aspect ratio : 1.667
Frame rate mode : Constant
Frame rate : 25.000 fps
Color space : YUV
Chroma subsampling : 4:2:0
Bit depth : 8 bits
Scan type : Progressive
Bits/(Pixel*Frame) : 0.237
Stream size : 674 MiB (79%)
Writing library : x264 core 129 r2245 bc13772
Encoding settings : cabac=1 / ref=16 / deblock=1:-3:-2 / analyse=0x3:0x133 / me=umh / subme=10
/ psy=1 / psy_rd=1.00:0.15 / mixed_ref=1 / me_range=24 / chroma_me=1 / trellis=2 / 8x8dct=1 / cqm=0 / deadzone=21,11
/ fast_pskip=1 / chroma_qp_offset=-3 / threads=6 / lookahead_threads=1 / sliced_threads=0 / nr=0 / decimate=0 /
interlaced=0 / bluray_compat=0 / constrained_intra=0 / bframes=8 / b_pyramid=2 / b_adapt=2 / b_bias=0 / direct=3 /
weightb=1 / open_gop=0 / weightp=2 / keyint=250 / keyint_min=25 / scenecut=40 / intra_refresh=0 / rc_lookahead=60 /
rc=2pass / mbtree=1 / bitrate=1860 / ratetol=1.0 / qcomp=0.60 / qpmin=0 / qpmax=69 / qpstep=4 / cplxblur=20.0 /
qblur=0.5 / ip_ratio=1.40 / aq=1:1.00
Language : Russian
Default : Yes
Forced : Yes
Audio
ID : 2
Format : AC-3
Format/Info : Audio Coding 3
Mode extension : CM (complete main)
Format settings, Endianness : Big
Codec ID : A_AC3
Duration : 52mn 0s
Bit rate mode : Constant
Bit rate : 448 Kbps
Channel(s) : 6 channels
Channel positions : Front: L C R, Side: L R, LFE
Sampling rate : 48.0 KHz
Bit depth : 16 bits
Compression mode : Lossy
Delay relative to video : 10s 789ms
Stream size : 167 MiB (19%)
Language : Russian
Default : Yes
Forced : Yes
Серия_11.mkv-----------------------------------------------------------------------------
Общее
Уникальный идентификатор : 193206745246579050087600512537296235826
(0x915A43FF334A06D29A0EBE7645F1ED32)
Полное имя : D:\Temp\br\result\Серия_11.mkv
Формат : Matroska
Версия формата : Version 4 / Version 2
Размер файла : 861 Мбайт
Продолжительность : 52 м.
Общий поток : 2306 Кбит/сек
Дата кодирования : UTC 2013-03-22 14:32:04
Программа кодирования : mkvmerge v6.0.0 ('Coming Up For Air') built on Jan 20 2013 09:52:00
Библиотека кодирования : libebml v1.3.0 + libmatroska v1.4.0
Видео
Идентификатор : 1
Формат : AVC
Формат/Информация : Advanced Video Codec
Профиль формата : High@L4.1
Параметр CABAC формата : Да
Параметр ReFrames формата : 16 кадров
Идентификатор кодека : V_MPEG4/ISO/AVC
Продолжительность : 52 м.
Битрейт : 1860 Кбит/сек
Ширина : 702 пикселя
Высота : 448 пикселей
Соотношение сторон : 1,667
Режим частоты кадров : Постоянный
Частота кадров : 25,000 кадров/сек
Цветовое пространство : YUV
Субдискретизация насыщенности : 4:2:0
Битовая глубина : 8 бит
Тип развёртки : Прогрессивная
Бит/(Пиксели*Кадры) : 0.237
Размер потока : 676 Мбайт (79%)
Библиотека кодирования : x264 core 129 r2245 bc13772
Настройки программы : cabac=1 / ref=16 / deblock=1:-3:-2 / analyse=0x3:0x133 / me=umh / subme=10
/ psy=1 / psy_rd=1.00:0.15 / mixed_ref=1 / me_range=24 / chroma_me=1 / trellis=2 / 8x8dct=1 / cqm=0 / deadzone=21,11
/ fast_pskip=1 / chroma_qp_offset=-3 / threads=6 / lookahead_threads=1 / sliced_threads=0 / nr=0 / decimate=0 /
interlaced=0 / bluray_compat=0 / constrained_intra=0 / bframes=8 / b_pyramid=2 / b_adapt=2 / b_bias=0 / direct=3 /
weightb=1 / open_gop=0 / weightp=2 / keyint=250 / keyint_min=25 / scenecut=40 / intra_refresh=0 / rc_lookahead=60 /
rc=2pass / mbtree=1 / bitrate=1860 / ratetol=1.0 / qcomp=0.60 / qpmin=0 / qpmax=69 / qpstep=4 / cplxblur=20.0 /
qblur=0.5 / ip_ratio=1.40 / aq=1:1.00
Язык : Russian
Default : Да
Forced : Да
Аудио
Идентификатор : 2
Формат : AC-3
Формат/Информация : Audio Coding 3
Расширение режима : CM (complete main)
Параметр Endianness формата : Big
Идентификатор кодека : A_AC3
Продолжительность : 52 м.
Вид битрейта : Постоянный
Битрейт : 448 Кбит/сек
Каналы : 6 каналов
Расположение каналов : Front: L C R, Side: L R, LFE
Частота : 48,0 КГц
Битовая глубина : 16 бит
Метод сжатия : С потерями
Задержка видео : 10 с.
Размер потока : 167 Мбайт (19%)
Язык : Russian
Default : Да
Forced : Да
Серия_12.mkv-----------------------------------------------------------------------------
General
Unique ID : 207538358174341595556483403433002583679
(0x9C226F118F558A14A0B2DE671362C67F)
Complete name : D:\Temp\br\result\Серия_12.mkv
Format : Matroska
Format version : Version 4 / Version 2
File size : 849 MiB
Duration : 51mn 25s
Overall bit rate : 2 308 Kbps
Encoded date : UTC 2013-03-22 20:39:45
Writing application : mkvmerge v6.0.0 ('Coming Up For Air') built on Jan 20 2013 09:52:00
Writing library : libebml v1.3.0 + libmatroska v1.4.0
Video
ID : 1
Format : AVC
Format/Info : Advanced Video Codec
Format profile : High@L4.1
Format settings, CABAC : Yes
Format settings, ReFrames : 16 frames
Codec ID : V_MPEG4/ISO/AVC
Duration : 51mn 25s
Bit rate : 1 860 Kbps
Width : 702 pixels
Height : 448 pixels
Display aspect ratio : 1.667
Frame rate mode : Constant
Frame rate : 25.000 fps
Color space : YUV
Chroma subsampling : 4:2:0
Bit depth : 8 bits
Scan type : Progressive
Bits/(Pixel*Frame) : 0.237
Stream size : 667 MiB (79%)
Writing library : x264 core 129 r2245 bc13772
Encoding settings : cabac=1 / ref=16 / deblock=1:-3:-2 / analyse=0x3:0x133 / me=umh / subme=10
/ psy=1 / psy_rd=1.00:0.15 / mixed_ref=1 / me_range=24 / chroma_me=1 / trellis=2 / 8x8dct=1 / cqm=0 / deadzone=21,11
/ fast_pskip=1 / chroma_qp_offset=-3 / threads=6 / lookahead_threads=1 / sliced_threads=0 / nr=0 / decimate=0 /
interlaced=0 / bluray_compat=0 / constrained_intra=0 / bframes=8 / b_pyramid=2 / b_adapt=2 / b_bias=0 / direct=3 /
weightb=1 / open_gop=0 / weightp=2 / keyint=250 / keyint_min=25 / scenecut=40 / intra_refresh=0 / rc_lookahead=60 /
rc=2pass / mbtree=1 / bitrate=1860 / ratetol=1.0 / qcomp=0.60 / qpmin=0 / qpmax=69 / qpstep=4 / cplxblur=20.0 /
qblur=0.5 / ip_ratio=1.40 / aq=1:1.00
Language : Russian
Default : Yes
Forced : Yes
Audio
ID : 2
Format : AC-3
Format/Info : Audio Coding 3
Mode extension : CM (complete main)
Format settings, Endianness : Big
Codec ID : A_AC3
Duration : 51mn 25s
Bit rate mode : Constant
Bit rate : 448 Kbps
Channel(s) : 6 channels
Channel positions : Front: L C R, Side: L R, LFE
Sampling rate : 48.0 KHz
Bit depth : 16 bits
Compression mode : Lossy
Delay relative to video : 10s 568ms
Stream size : 165 MiB (19%)
Language : Russian
Default : Yes
Forced : Yes
Серия_13.mkv-----------------------------------------------------------------------------
General
Unique ID : 242392396262679928240457374602177101409
(0xB65B13D226C7CC92B76EB4E16CCD3E61)
Complete name : D:\Temp\br\result\Серия_13.mkv
Format : Matroska
Format version : Version 4 / Version 2
File size : 866 MiB
Duration : 52mn 59s
Overall bit rate : 2 284 Kbps
Encoded date : UTC 2013-03-22 22:16:42
Writing application : mkvmerge v6.0.0 ('Coming Up For Air') built on Jan 20 2013 09:52:00
Writing library : libebml v1.3.0 + libmatroska v1.4.0
Video
ID : 1
Format : AVC
Format/Info : Advanced Video Codec
Format profile : High@L4.1
Format settings, CABAC : Yes
Format settings, ReFrames : 16 frames
Codec ID : V_MPEG4/ISO/AVC
Duration : 52mn 59s
Bit rate : 1 860 Kbps
Width : 702 pixels
Height : 448 pixels
Display aspect ratio : 1.667
Frame rate mode : Constant
Frame rate : 25.000 fps
Color space : YUV
Chroma subsampling : 4:2:0
Bit depth : 8 bits
Scan type : Progressive
Bits/(Pixel*Frame) : 0.237
Stream size : 679 MiB (78%)
Writing library : x264 core 129 r2245 bc13772
Encoding settings : cabac=1 / ref=16 / deblock=1:-3:-2 / analyse=0x3:0x133 / me=umh / subme=10
/ psy=1 / psy_rd=1.00:0.15 / mixed_ref=1 / me_range=24 / chroma_me=1 / trellis=2 / 8x8dct=1 / cqm=0 / deadzone=21,11
/ fast_pskip=1 / chroma_qp_offset=-3 / threads=6 / lookahead_threads=1 / sliced_threads=0 / nr=0 / decimate=0 /
interlaced=0 / bluray_compat=0 / constrained_intra=0 / bframes=8 / b_pyramid=2 / b_adapt=2 / b_bias=0 / direct=3 /
weightb=1 / open_gop=0 / weightp=2 / keyint=250 / keyint_min=25 / scenecut=40 / intra_refresh=0 / rc_lookahead=60 /
rc=2pass / mbtree=1 / bitrate=1860 / ratetol=1.0 / qcomp=0.60 / qpmin=0 / qpmax=69 / qpstep=4 / cplxblur=20.0 /
qblur=0.5 / ip_ratio=1.40 / aq=1:1.00
Language : Russian
Default : Yes
Forced : Yes
Audio
ID : 2
Format : AC-3
Format/Info : Audio Coding 3
Mode extension : CM (complete main)
Format settings, Endianness : Big
Codec ID : A_AC3
Duration : 52mn 59s
Bit rate mode : Constant
Bit rate : 448 Kbps
Channel(s) : 6 channels
Channel positions : Front: L C R, Side: L R, LFE
Sampling rate : 48.0 KHz
Bit depth : 16 bits
Compression mode : Lossy
Stream size : 170 MiB (20%)
Language : Russian
Default : Yes
Forced : Yes
Серия_14.mkv-----------------------------------------------------------------------------
General
Unique ID : 238579524408342686615540978625897952034
(0xB37CBEB978AEEBCBA0506D8333B5F322)
Complete name : D:\Temp\br\result\Серия_14.mkv
Format : Matroska
Format version : Version 4 / Version 2
File size : 908 MiB
Duration : 55mn 1s
Overall bit rate : 2 308 Kbps
Encoded date : UTC 2013-03-21 04:59:39
Writing application : mkvmerge v6.0.0 ('Coming Up For Air') built on Jan 20 2013 09:52:00
Writing library : libebml v1.3.0 + libmatroska v1.4.0
Video
ID : 1
Format : AVC
Format/Info : Advanced Video Codec
Format profile : High@L4.1
Format settings, CABAC : Yes
Format settings, ReFrames : 16 frames
Codec ID : V_MPEG4/ISO/AVC
Duration : 55mn 1s
Bit rate : 1 860 Kbps
Width : 702 pixels
Height : 448 pixels
Display aspect ratio : 1.667
Frame rate mode : Constant
Frame rate : 25.000 fps
Color space : YUV
Chroma subsampling : 4:2:0
Bit depth : 8 bits
Scan type : Progressive
Bits/(Pixel*Frame) : 0.237
Stream size : 714 MiB (79%)
Writing library : x264 core 129 r2245 bc13772
Encoding settings : cabac=1 / ref=16 / deblock=1:-3:-2 / analyse=0x3:0x133 / me=umh / subme=10
/ psy=1 / psy_rd=1.00:0.15 / mixed_ref=1 / me_range=24 / chroma_me=1 / trellis=2 / 8x8dct=1 / cqm=0 / deadzone=21,11
/ fast_pskip=1 / chroma_qp_offset=-3 / threads=6 / lookahead_threads=1 / sliced_threads=0 / nr=0 / decimate=0 /
interlaced=0 / bluray_compat=0 / constrained_intra=0 / bframes=8 / b_pyramid=2 / b_adapt=2 / b_bias=0 / direct=3 /
weightb=1 / open_gop=0 / weightp=2 / keyint=250 / keyint_min=25 / scenecut=40 / intra_refresh=0 / rc_lookahead=60 /
rc=2pass / mbtree=1 / bitrate=1860 / ratetol=1.0 / qcomp=0.60 / qpmin=0 / qpmax=69 / qpstep=4 / cplxblur=20.0 /
qblur=0.5 / ip_ratio=1.40 / aq=1:1.00
Language : Russian
Default : Yes
Forced : Yes
Audio
ID : 2
Format : AC-3
Format/Info : Audio Coding 3
Mode extension : CM (complete main)
Format settings, Endianness : Big
Codec ID : A_AC3
Duration : 55mn 1s
Bit rate mode : Constant
Bit rate : 448 Kbps
Channel(s) : 6 channels
Channel positions : Front: L C R, Side: L R, LFE
Sampling rate : 48.0 KHz
Bit depth : 16 bits
Compression mode : Lossy
Stream size : 176 MiB (19%)
Language : Russian
Default : Yes
Forced : Yes
Серия_15.mkv-----------------------------------------------------------------------------
General
Unique ID : 204126457668706005097443844199664744393
(0x99915362D147E8249FC885FE18A677C9)
Complete name : D:\Temp\br\result\Серия_15.mkv
Format : Matroska
Format version : Version 4 / Version 2
File size : 909 MiB
Duration : 55mn 0s
Overall bit rate : 2 310 Kbps
Encoded date : UTC 2013-03-21 06:09:05
Writing application : mkvmerge v6.0.0 ('Coming Up For Air') built on Jan 20 2013 09:52:00
Writing library : libebml v1.3.0 + libmatroska v1.4.0
Video
ID : 1
Format : AVC
Format/Info : Advanced Video Codec
Format profile : High@L4.1
Format settings, CABAC : Yes
Format settings, ReFrames : 16 frames
Codec ID : V_MPEG4/ISO/AVC
Duration : 55mn 0s
Bit rate : 1 860 Kbps
Width : 702 pixels
Height : 448 pixels
Display aspect ratio : 1.667
Frame rate mode : Constant
Frame rate : 25.000 fps
Color space : YUV
Chroma subsampling : 4:2:0
Bit depth : 8 bits
Scan type : Progressive
Bits/(Pixel*Frame) : 0.237
Stream size : 714 MiB (79%)
Writing library : x264 core 129 r2245 bc13772
Encoding settings : cabac=1 / ref=16 / deblock=1:-3:-2 / analyse=0x3:0x133 / me=umh / subme=10
/ psy=1 / psy_rd=1.00:0.15 / mixed_ref=1 / me_range=24 / chroma_me=1 / trellis=2 / 8x8dct=1 / cqm=0 / deadzone=21,11
/ fast_pskip=1 / chroma_qp_offset=-3 / threads=6 / lookahead_threads=1 / sliced_threads=0 / nr=0 / decimate=0 /
interlaced=0 / bluray_compat=0 / constrained_intra=0 / bframes=8 / b_pyramid=2 / b_adapt=2 / b_bias=0 / direct=3 /
weightb=1 / open_gop=0 / weightp=2 / keyint=250 / keyint_min=25 / scenecut=40 / intra_refresh=0 / rc_lookahead=60 /
rc=2pass / mbtree=1 / bitrate=1860 / ratetol=1.0 / qcomp=0.60 / qpmin=0 / qpmax=69 / qpstep=4 / cplxblur=20.0 /
qblur=0.5 / ip_ratio=1.40 / aq=1:1.00
Language : English
Default : Yes
Forced : Yes
Audio
ID : 2
Format : AC-3
Format/Info : Audio Coding 3
Mode extension : CM (complete main)
Format settings, Endianness : Big
Codec ID : A_AC3
Duration : 55mn 0s
Bit rate mode : Constant
Bit rate : 448 Kbps
Channel(s) : 6 channels
Channel positions : Front: L C R, Side: L R, LFE
Sampling rate : 48.0 KHz
Bit depth : 16 bits
Compression mode : Lossy
Stream size : 176 MiB (19%)
Language : Russian
Default : Yes
Forced : Yes
 
Показать сообщения:    

Текущее время: Сегодня 02:38

Часовой пояс: GMT



Вы не можете начинать темы
Вы не можете отвечать на сообщения
Вы не можете редактировать свои сообщения
Вы не можете удалять свои сообщения
Вы не можете голосовать в опросах
Вы не можете прикреплять файлы к сообщениям
Вы не можете скачивать файлы