Важное объявление!
У Нас Все раздачи мультитрекерные, при нуле пиров в релизах, можете смело вставать на закачку!
 
Автор Сообщение

HUNTER

Стаж:
4 года 4 месяца
Сообщений:
56839

Репутация: 101

[+] [-]
Вне форума [Профиль] [ЛС]

Брейкеры 2: Электрическое Бугало / Брейк-данс 2 / Breakin' 2: Electric Boogaloo / Breakdance 2
Страна: США
Студия: TriStar Pictures, Cannon Group
Жанр: комедия, музыка, танцы
Год выпуска: 1984
Продолжительность: 01:30:12
Перевод 1: Профессиональный (двухголосый закадровый) НТВ+
Перевод 2: Авторский (одноголосый закадровый) В. Королев
Cубтитры: английские
Оригинальная аудиодорожка: английский
Режиссер: Сэм Фёрстенберг / Sam Firstenberg
В ролях: Люсинда Дикки, Адольфо Киньонес, Майкл Чэмберс, Сьюзи Коэльо, Гарри Цезар, Джо Де Винтер, Джон Кристи Юинг, Стив Нотарио, Сабрина Гарсия, Лу Леонард
Описание: Трое героев из первого фильма пытаются спасти от разрушения общественный центр досуга, на месте которого хотят построить современный торговый центр.

IMDB
Доп. информация: Авторский перевод и оригинальная дорога взяты с этой раздачи, спасибо dvdbox
Тип релиза: HDTV 1080i
Контейнер: MKV
Видео: AVC 1920x1080 (16:9) 25.0fps Bit rate 9038Kbps
Аудио 1: MP2 48.0 KHz 2ch. 192kbps rus DVO
Аудио 2: AC3 48.0 KHz 2ch. 192kbps rus AVO
Аудио 3: AC3 48.0 KHz 2ch. 192kbps eng
Формат субтитров: softsub (SRT)

MediaInfo

Общее
Уникальный идентификатор : 182603744736411405711970089897637642630 (0x896033B5E9857D58B81D71F2D9BF0186)
Полное имя : E:\torrent\Breakdance 2_HDTV1080i.mkv
Формат : Matroska
Версия формата : Version 4 / Version 2
Размер файла : 6,18 Гбайт
Продолжительность : 1 ч. 30 м.
Общий поток : 9809 Кбит/сек
Дата кодирования : UTC 2014-02-03 05:38:30
Программа кодирования : mkvmerge v6.6.0 ('The Edge Of The In Between') built on Dec 1 2013 17:55:00
Библиотека кодирования : libebml v1.3.0 + libmatroska v1.4.1
Видео
Идентификатор : 1
Формат : AVC
Формат/Информация : Advanced Video Codec
Профиль формата : High@L4.0
Параметр CABAC формата : Да
Параметр ReFrames формата : 3 кадра
Параметр GOP формата : M=4, N=32
Идентификатор кодека : V_MPEG4/ISO/AVC
Продолжительность : 1 ч. 30 м.
Битрейт : 9038 Кбит/сек
Ширина : 1920 пикселей
Высота : 1080 пикселей
Соотношение сторон : 16:9
Режим частоты кадров : Постоянный
Частота кадров : 25,000 кадров/сек
Стандарт вещания : Component
Цветовое пространство : YUV
Субдискретизация насыщенности : 4:2:0
Битовая глубина : 8 бит
Тип развёртки : Чересстрочная
Порядок развёртки : Верхнее поле первое
Бит/(Пиксели*Кадры) : 0.174
Размер потока : 5,70 Гбайт (92%)
Заголовок : Breakdance 2_HDTV 1080i
Default : Да
Forced : Нет
Основные цвета : BT.709
Характеристики трансфера : BT.709
Коэффициенты матрицы : BT.709
Аудио #1
Идентификатор : 2
Формат : MPEG Audio
Версия формата : Version 1
Профиль формата : Layer 2
Идентификатор кодека : A_MPEG/L2
Идентификатор кодека/Подсказка : MP2
Продолжительность : 1 ч. 30 м.
Вид битрейта : Постоянный
Битрейт : 192 Кбит/сек
Каналы : 2 канала
Частота : 48,0 КГц
Метод сжатия : С потерями
Размер потока : 124 Мбайт (2%)
Заголовок : Breakdance 2_MP2_2ch_DVO_NTV+
Язык : Russian
Default : Да
Forced : Нет
Аудио #2
Идентификатор : 3
Формат : AC-3
Формат/Информация : Audio Coding 3
Расширение режима : CM (complete main)
Параметр Endianness формата : Big
Идентификатор кодека : A_AC3
Продолжительность : 1 ч. 30 м.
Вид битрейта : Постоянный
Битрейт : 192 Кбит/сек
Каналы : 2 канала
Расположение каналов : Front: L R
Частота : 48,0 КГц
Битовая глубина : 16 бит
Метод сжатия : С потерями
Размер потока : 124 Мбайт (2%)
Заголовок : Breakdance 2_AC3_2ch_AVO_V.Korolev
Язык : Russian
Default : Нет
Forced : Нет
Аудио #3
Идентификатор : 4
Формат : AC-3
Формат/Информация : Audio Coding 3
Расширение режима : CM (complete main)
Параметр Endianness формата : Big
Идентификатор кодека : A_AC3
Продолжительность : 1 ч. 30 м.
Вид битрейта : Постоянный
Битрейт : 192 Кбит/сек
Каналы : 2 канала
Расположение каналов : Front: L R
Частота : 48,0 КГц
Битовая глубина : 16 бит
Метод сжатия : С потерями
Размер потока : 124 Мбайт (2%)
Заголовок : Breakdance 2_AC3_2ch_original eng
Язык : English
Default : Нет
Forced : Нет
Текст
Идентификатор : 5
Формат : UTF-8
Идентификатор кодека : S_TEXT/UTF8
Идентификатор кодека/Информация : UTF-8 Plain Text
Заголовок : Breakdance 2_subtitle eng
Язык : English
Default : Нет
Forced : Нет

Скриншот с названием фильма

Скриншоты

Сравнение с DVD



_________________
Показать сообщения:    

Текущее время: Сегодня 05:23

Часовой пояс: GMT



Вы не можете начинать темы
Вы не можете отвечать на сообщения
Вы не можете редактировать свои сообщения
Вы не можете удалять свои сообщения
Вы не можете голосовать в опросах
Вы не можете прикреплять файлы к сообщениям
Вы не можете скачивать файлы