Важное объявление!
У Нас Все раздачи мультитрекерные, при нуле пиров в релизах, можете смело вставать на закачку!
 
Автор Сообщение

HUNTER

Стаж:
4 года 4 месяца
Сообщений:
56719

Репутация: 101

[+] [-]
Вне форума [Профиль] [ЛС]

Брат 2
Страна: Россия
Жанр: Боевик, криминал
Год выпуска: 2000
Продолжительность: 02:02:40
Перевод: не требуется
Cубтитры: русские
Оригинальная аудиодорожка: русский
Режиссёр: Алексей Балабанов
В ролях: Сергей Бодров мл., Виктор Сухоруков, Сергей Маковецкий, Ирина Салтыкова, Кирилл Пирогов, Александр Дьяченко, Дарья Юргенс, Александр Наумов, Александр Карамнов, Гэри Хьюстон
Описание: Участвуя в программе на телевидении, Данила Багров встречает своих друзей по Чечне. Одного из них внезапно убивают. Данила знает, что у того были неприятности из-за брата-хоккеиста в Америке. Данила должен разобраться. Он вылетает в Америку и для компании берёт с собой брата. Теперь его фотография ходит по рукам русской и американской мафии. Новоявленные «Аль Капоне» понимают, что нарвались на профессионала…
Доп. информация:
Английские, украинские и проч. фразы оставлены на оригинальном языке
Роли дублировали: Алексей Полуян, Евгений Дятлов, Наталья Данилова, Юрий Стоянов

Сэмпл

Качество видео: WEB-DL 1080p
Формат видео: MKV
Видео: MPEG 4-AVC, 4000 Кбит/с, 1920x1080
Аудио 1: Russian Dolby Digital 5.1 @ 448 kbps (DUB DVD R5 - AMALGAMA)
Аудио 2: Russian Dolby Digital 5.1 @ 448 kbps ('International' DVD R5 - AMALGAMA)*
Аудио 3: Russian AAC 2.0 @ 160 kbps (iTunes)
Субтитры: (SRT): Russian

MediaInfo

Video
ID : 1
Format : AVC
Format/Info : Advanced Video Codec
Format profile : High@L4.0
Format settings, CABAC : Yes
Format settings, ReFrames : 4 frames
Codec ID : V_MPEG4/ISO/AVC
Duration : 2h 2mn
Width : 1 920 pixels
Height : 1 080 pixels
Display aspect ratio : 16:9
Frame rate mode : Constant
Frame rate : 25.000 fps
Color space : YUV
Chroma subsampling : 4:2:0
Bit depth : 8 bits
Scan type : Progressive
Title : BRAT2_WEB-DL_1080p-BLUEBIRD
Language : Russian
Default : Yes
Forced : No
Color primaries : BT.709
Transfer characteristics : BT.709
Matrix coefficients : BT.709
Color range : Limited
Audio #1
ID : 2
Format : AC-3
Format/Info : Audio Coding 3
Mode extension : CM (complete main)
Format settings, Endianness : Big
Codec ID : A_AC3
Duration : 2h 2mn
Bit rate mode : Constant
Bit rate : 448 Kbps
Channel(s) : 6 channels
Channel positions : Front: L C R, Side: L R, LFE
Sampling rate : 48.0 KHz
Bit depth : 16 bits
Compression mode : Lossy
Stream size : 393 MiB (7%)
Title : [DUB] DD 5.1 @ 448 kbps - 'DVD-R5 AMALGAMA'
Language : Russian
Default : No
Forced : No
Audio #2
ID : 3
Format : AC-3
Format/Info : Audio Coding 3
Mode extension : CM (complete main)
Format settings, Endianness : Big
Codec ID : A_AC3
Duration : 2h 2mn
Bit rate mode : Constant
Bit rate : 448 Kbps
Channel(s) : 6 channels
Channel positions : Front: L C R, Side: L R, LFE
Sampling rate : 48.0 KHz
Bit depth : 16 bits
Compression mode : Lossy
Stream size : 393 MiB (7%)
Title : [ORIGINAL] DD 5.1 @ 448 kbps - 'DVD-R5 AMALGAMA'
Language : Russian
Default : No
Forced : No
Audio #3
ID : 4
Format : AAC
Format/Info : Advanced Audio Codec
Format profile : LC
Codec ID : A_AAC
Duration : 2h 2mn
Channel(s) : 2 channels
Channel positions : Front: L R
Sampling rate : 48.0 KHz
Compression mode : Lossy
Title : [ORIGINAL] AAC 2.0 @ 160 kbps - 'iTunes'
Language : Russian
Default : No
Forced : No
Text
ID : 5
Format : UTF-8
Codec ID : S_TEXT/UTF8
Codec ID/Info : UTF-8 Plain Text
Title : [Full-length]
Language : Russian
Default : No
Forced : No
Menu
00:00:00.000 : en:Глава 1
00:07:38.000 : en:Глава 2
00:13:07.000 : en:Глава 3
00:18:14.000 : en:Глава 4
00:24:38.000 : en:Глава 5
00:31:27.000 : en:Глава 6
00:38:10.000 : en:Глава 7
00:44:05.000 : en:Глава 8
00:51:29.000 : en:Глава 9
00:57:08.000 : en:Глава 10
01:02:41.000 : en:Глава 11
01:08:01.000 : en:Глава 12
01:14:26.000 : en:Глава 13
01:22:00.000 : en:Глава 14
01:28:24.000 : en:Глава 15
01:33:59.000 : en:Глава 16
01:39:27.000 : en:Глава 17
01:45:27.000 : en:Глава 18
01:52:06.000 : en:Глава 19
01:56:34.000 : en:Глава 20

Награды

Кинотавр, 2000 год
Номинации (1):
Главный приз «Золотая роза»

Скриншот c названием фильма

Скриншоты


_________________
Показать сообщения:    

Текущее время: Сегодня 00:34

Часовой пояс: GMT



Вы не можете начинать темы
Вы не можете отвечать на сообщения
Вы не можете редактировать свои сообщения
Вы не можете удалять свои сообщения
Вы не можете голосовать в опросах
Вы не можете прикреплять файлы к сообщениям
Вы не можете скачивать файлы