Важное объявление!
У Нас Все раздачи мультитрекерные, при нуле пиров в релизах, можете смело вставать на закачку!
 
Автор Сообщение

HUNTER

Стаж:
4 года 4 месяца
Сообщений:
56853

Репутация: 101

[+] [-]
Вне форума [Профиль] [ЛС]

Большой взрыв. Галактики и черные дыры / Horizon. Of Big Bangs, Stick Men And Galactic Holes
Дата/Год выпуска: 1991
Страна: Великобритания
Жанр: научно-популярный, космонавтика
Продолжительность: 00:48:50
Перевод: Профессиональный (многоголосый закадровый)
Описание: Фильм рассказывает о теории Большого взрыва и роли черных дыр в формировании Вселенной.
Семпл: http://sendfile.su/1114383
качество: SATRip
формат: AVI
Видео: Xvid 640x480 25fps 968kbps
Аудио: MP3 44100Hz mono 64kbps

MediaInfo

GeneralComplete name : C:\Documents and Settings\Администратор\Мои документы\BBC. Horizon. Of Big Bangs, Stick Men And Galactic Holes (1991).aviFormat : AVIFormat/Info : Audio Video InterleaveFile size : 364 MiBDuration : 48mn 50sOverall bit rate : 1 041 KbpsWriting application : VirtualDubMod 1.5.10.3 | www.virtualdub-fr.org || (build 2550/release)Writing library : VirtualDubMod build 2550/release
VideoID : 0Format : MPEG-4 VisualFormat profile : Advanced Simple@L5Format settings, BVOP : 1Format settings, QPel : NoFormat settings, GMC : No warppointsFormat settings, Matrix : Default (H.263)Codec ID : XVIDCodec ID/Hint : XviDDuration : 48mn 50sBit rate : 968 KbpsWidth : 640 pixelsHeight : 480 pixelsDisplay aspect ratio : 4:3Frame rate : 25.000 fpsColor space : YUVChroma subsampling : 4:2:0Bit depth : 8 bitsScan type : ProgressiveCompression mode : LossyBits/(Pixel*Frame) : 0.126Stream size : 338 MiB (93%)Writing library : XviD 1.2.1 (UTC 2008-12-04)
AudioID : 1Format : MPEG AudioFormat version : Version 1Format profile : Layer 3Codec ID : 55Codec ID/Hint : MP3Duration : 48mn 50sBit rate mode : ConstantBit rate : 64.0 KbpsChannel(s) : 1 channelSampling rate : 44.1 KHzCompression mode : LossyStream size : 22.4 MiB (6%)Alignment : Split accross interleavesInterleave, duration : 40 ms (1.00 video frame)Interleave, preload duration : 500 msWriting library : LAME3.99rEncoding settings : -m m -V 4 -q 2 -lowpass 16.5 -b 64

Скриншоты


_________________
Показать сообщения:    

Текущее время: Сегодня 12:54

Часовой пояс: GMT



Вы не можете начинать темы
Вы не можете отвечать на сообщения
Вы не можете редактировать свои сообщения
Вы не можете удалять свои сообщения
Вы не можете голосовать в опросах
Вы не можете прикреплять файлы к сообщениям
Вы не можете скачивать файлы
Наши партнеры: интернет магазин Ивановского трикотажа textilla.ru