Важное объявление!
У Нас Все раздачи мультитрекерные, при нуле пиров в релизах, можете смело вставать на закачку!
 
Автор Сообщение

HUNTER

Стаж:
4 года 4 месяца
Сообщений:
56848

Репутация: 101

[+] [-]
Вне форума [Профиль] [ЛС]

Большой Босс / The Boss / Театральная версия / Theatrical Cut
-Год выпуска: 2016
Страна: США
Студия: Universal Pictures
Жанр: комедия
Продолжительность: 01:38:49
Перевод: Профессиональный (дублированный) Blu-ray CEE / UPI
Cубтитры: русские, украинские, английские
Оригинальная аудиодорожка: английский
-Режиссер: Бен Фэлкоун / Ben Falcone-В ролях: Мелисса МакКарти, Кристен Белл, Питер Динклэйдж, Элла Андерсон, Тайлер Лабин, Кэти Бейтс, Сесили Стронг, Мэри Сон, Кристен Шаал, Эва Питерсон и другие.-Роли дублировали: Анастасия Лапина, Вероника Сакрисова, Сергей Чихачёв, Василиса Эльдарова, Даниил Эльдаров, Людмила Ильина, Варвара Чабан, Ольга Шорохова, Екатерина Воронина, Сергей Смирнов, Людмила Шувалова, Маша Емельянова, Илья Бледный, Василий Дахненко, Михаил Георгиу, Диомид Виноградов, Ольга Кузнецова. Анна Киселёва, Антон Савенков, Владимир Антипов, Владимир Тягичев, Денис Некрасов, Екатерина Виноградова, Иван Жарков, Ирина Виленкина, Полина Чекан, Роман Куперман, Сергей Пономарёв, Татьяна Шарко и другие.-Описание: В центре сюжета бизнес-леди, промышленный магнат, очутившаяся в тюрьме, погорев на теневых сделках. Отсидев положенное, женщина мечтает искупить вину и сменить статус мошенницы на всеобщую любимицу, только не все жертвы ее махинаций готовы пересмотреть свое отношение к ней.-РЕЛИЗ ОТ: -Качество: BDRip 720p |DON|
Формат: MKV
Видео кодек: H.264
Аудио кодек: DTS
Видео: H.264, 1280x692 (1.85:1), 23.976 fps, ~5500 kbps, 0.259 bit/pixel
Аудио:
  • русская |Blu-ray CEE|: DTS, 48 kHz, 6 ch, 768 kbps
  • английская |Оригинал|: DTS, 48 kHz, 6 ch, 1509 kbps
-Сэмпл \ Кинопоиск-

Скриншоты

Media Info

Код:
General
Unique ID                      : 205150471736915250864765131241516655422 (0x9A568B2D74542609B98D3278FDE7633E)
Complete name                  : E:\Video\HD\Movies (HD)\The Boss (2016) (BDRip 720p l Theatrical Cut).mkv
Format                         : Matroska
Format version                 : Version 4 / Version 2
File size                      : 5.38 GiB
Duration                       : 1h 38mn
Overall bit rate               : 7 788 Kbps
Encoded date                   : UTC 2016-08-20 01:55:53
Writing application            : mkvmerge v8.8.0 ('Wind at my back') 32bit
Writing library                : libebml v1.3.3 + libmatroska v1.4.4
DURATION                       : 01:37:55.131000000
NUMBER_OF_FRAMES               : 2193
NUMBER_OF_BYTES                : 73874
_STATISTICS_WRITING_APP        : mkvmerge v8.8.0 ('Wind at my back') 32bit
_STATISTICS_WRITING_DATE_UTC   : 2016-08-20 01:55:53
_STATISTICS_TAGS               : BPS DURATION NUMBER_OF_FRAMES NUMBER_OF_BYTES
Video
ID                             : 1
Format                         : AVC
Format/Info                    : Advanced Video Codec
Format profile                 : High@L4.1
Format settings, CABAC         : Yes
Format settings, ReFrames      : 9 frames
Codec ID                       : V_MPEG4/ISO/AVC
Duration                       : 1h 38mn
Bit rate                       : 5 500 Kbps
Width                          : 1 280 pixels
Height                         : 692 pixels
Display aspect ratio           : 1.85:1
Frame rate mode                : Constant
Frame rate                     : 23.976 fps
Color space                    : YUV
Chroma subsampling             : 4:2:0
Bit depth                      : 8 bits
Scan type                      : Progressive
Bits/(Pixel*Frame)             : 0.259
Stream size                    : 3.70 GiB (69%)
Writing library                : x264 core 148 r2705 3f5ed56
Encoding settings              : cabac=1 / ref=9 / deblock=1:-3:-3 / analyse=0x3:0x133 / me=umh / subme=11 / psy=1 / psy_rd=1.05:0.00 / mixed_ref=1 / me_range=32 / chroma_me=1 / trellis=2 / 8x8dct=1 / cqm=0 / deadzone=21,11 / fast_pskip=0 / chroma_qp_offset=-2 / threads=18 / lookahead_threads=3 / sliced_threads=0 / slices=4 / nr=0 / decimate=0 / interlaced=0 / bluray_compat=0 / constrained_intra=0 / bframes=8 / b_pyramid=2 / b_adapt=2 / b_bias=0 / direct=3 / weightb=1 / open_gop=0 / weightp=2 / keyint=250 / keyint_min=23 / scenecut=40 / intra_refresh=0 / rc_lookahead=40 / rc=2pass / mbtree=0 / bitrate=5500 / ratetol=1.0 / qcomp=0.65 / qpmin=0 / qpmax=51 / qpstep=4 / cplxblur=20.0 / qblur=0.5 / vbv_maxrate=62500 / vbv_bufsize=78125 / nal_hrd=none / filler=0 / ip_ratio=1.35 / pb_ratio=1.25 / aq=3:0.75 / zones=0,863,b=2
Language                       : English
Default                        : Yes
Forced                         : No
DURATION                       : 01:38:48.923000000
NUMBER_OF_FRAMES               : 142152
NUMBER_OF_BYTES                : 4078201994
_STATISTICS_WRITING_APP        : mkvmerge v8.8.0 ('Wind at my back') 32bit
_STATISTICS_WRITING_DATE_UTC   : 2016-08-20 01:55:53
_STATISTICS_TAGS               : BPS DURATION NUMBER_OF_FRAMES NUMBER_OF_BYTES
Audio #1
ID                             : 2
Format                         : DTS
Format/Info                    : Digital Theater Systems
Mode                           : 16
Format settings, Endianness    : Big
Codec ID                       : A_DTS
Duration                       : 1h 38mn
Bit rate mode                  : Constant
Bit rate                       : 768 Kbps
Channel(s)                     : 6 channels
Channel positions              : Front: L C R, Side: L R, LFE
Sampling rate                  : 48.0 KHz
Bit depth                      : 24 bits
Compression mode               : Lossy
Stream size                    : 543 MiB (10%)
Title                          : DUB (Blu-ray CEE / UPI)
Language                       : Russian
Default                        : Yes
Forced                         : No
Audio #2
ID                             : 3
Format                         : DTS
Format/Info                    : Digital Theater Systems
Mode                           : 16
Format settings, Endianness    : Big
Codec ID                       : A_DTS
Duration                       : 1h 38mn
Bit rate mode                  : Constant
Bit rate                       : 1 509 Kbps
Channel(s)                     : 6 channels
Channel positions              : Front: L C R, Side: L R, LFE
Sampling rate                  : 48.0 KHz
Bit depth                      : 24 bits
Compression mode               : Lossy
Stream size                    : 1.04 GiB (19%)
Title                          : Original
Language                       : English
Default                        : No
Forced                         : No
Text #1
ID                             : 4
Format                         : UTF-8
Codec ID                       : S_TEXT/UTF8
Codec ID/Info                  : UTF-8 Plain Text
Title                          : Forced
Language                       : Russian
Default                        : Yes
Forced                         : No
Text #2
ID                             : 5
Format                         : UTF-8
Codec ID                       : S_TEXT/UTF8
Codec ID/Info                  : UTF-8 Plain Text
Title                          : Full
Language                       : Russian
Default                        : No
Forced                         : No
Text #3
ID                             : 6
Format                         : UTF-8
Codec ID                       : S_TEXT/UTF8
Codec ID/Info                  : UTF-8 Plain Text
Title                          : Full
Language                       : Ukrainian
Default                        : No
Forced                         : No
Text #4
ID                             : 7
Format                         : UTF-8
Codec ID                       : S_TEXT/UTF8
Codec ID/Info                  : UTF-8 Plain Text
Title                          : SDH
Language                       : English
Default                        : No
Forced                         : No
Menu
00:00:00.000                   : en:1
00:05:59.985                   : en:2
00:09:41.456                   : en:3
00:14:48.346                   : en:4
00:20:44.160                   : en:5
00:24:03.817                   : en:6
00:29:59.840                   : en:7
00:35:27.542                   : en:8
00:39:59.105                   : en:9
00:44:55.484                   : en:10
00:50:30.027                   : en:11
00:53:32.209                   : en:12
00:59:51.296                   : en:13
01:05:55.076                   : en:14
01:10:32.061                   : en:15
01:13:54.680                   : en:16
01:19:30.224                   : en:17
01:25:08.020                   : en:18
01:32:06.229                   : en:19
01:33:26.434                   : en:20
-

_________________
Показать сообщения:    

Текущее время: Сегодня 09:02

Часовой пояс: GMT



Вы не можете начинать темы
Вы не можете отвечать на сообщения
Вы не можете редактировать свои сообщения
Вы не можете удалять свои сообщения
Вы не можете голосовать в опросах
Вы не можете прикреплять файлы к сообщениям
Вы не можете скачивать файлы
Наши партнеры: интернет магазин Ивановского трикотажа textilla.ru