Важное объявление!
У Нас Все раздачи мультитрекерные, при нуле пиров в релизах, можете смело вставать на закачку!
 
Автор Сообщение

HUNTER

Стаж:
4 года 4 месяца
Сообщений:
56829

Репутация: 101

[+] [-]
Вне форума [Профиль] [ЛС]

Большое приключение Пи - Ви / Pee-wee's Big Adventure
Страна: США
Жанр: комедия, приключения
Год выпуска: 1985
Продолжительность: 01:31:27
Перевод: Профессиональный (дублированный)
Cубтитры: русские, английские, французские...
Оригинальная аудиодорожка: английский
Режиссер: Тим Бёртон / Tim Burton
В ролях: Пол Рубенс, Элизабет Дэйли, Марк Холтон, Дайан Салинджер, Джадд Омен, Ирвинг Хеллман, Монте Лэндис, Дэймон Мартин, Дэвид Глассер
Описание: Пи-Ви, симпатичнейший бездельник, отправляется в дорогу, где ему предстоит встретить самых неожиданных людей: жуликов, хулиганов, ковбоев, экстравагантных официанток и многих других…
1 win & 2 nominations
Доп. информация: К BDRemux 1080p добавлены русские звуковая дорожка и субтитры. Сохранены оригинальные чаптеры как на Blu-ray.
Используемый софт:
MKVtool, Subtitle Workshop, BeSweet, Sony Vegas 10
Сэмпл: http://multi-up.com/1080667
Тип релиза: BDRemux 1080p
Контейнер: MKV
Видео: AVC, 17916 kbps, 1920x1080p, 23.976 fps
Аудио 1: Russian: Dolby AC3 / 2.0 / 48 kHz / 192 kbps / 16-bit
Аудио 2: English: DTS-HD / 5.1 / 48 kHz / 4119 kbps / 24-bit (DTS Core: 5.1 / 48 kHz / 1509 kbps / 24-bit)
Аудио 3: English: Dolby AC3 / 2.0 / 48 kHz / 192 kbps / 16-bit -Commentary by Paul Reubens and Director Tim Burton
Аудио 4: English: Dolby AC3 / 5.1 / 48 kHz / 640 kbps / 16-bit - Music-Only Track with Commentary by Danny Elfman
Формат субтитров: UTF-8, PGS

MediaInfo

Matroska
Версия формата : Version 2
Размер файла : 14,8 Гбайт
Продолжительность : 1 ч. 31 м.
Режим общего битрейта : Переменный
Общий поток : 23,1 Мбит/сек
Дата кодирования : UTC 2015-12-22 16:09:14
Программа кодирования : mkvmerge v7.5.0 ('Glass Culture') 32bit built on Jan 4 2015 16:37:25
Библиотека кодирования : libebml v1.3.1 + libmatroska v1.4.2
DURATION : 01:29:43.795000000
NUMBER_OF_FRAMES : 909
NUMBER_OF_BYTES : 27411
_STATISTICS_WRITING_APP : mkvmerge v7.5.0 ('Glass Culture') 32bit built on Jan 4 2015 16:37:25
_STATISTICS_WRITING_DATE_UTC : 2015-12-22 16:09:14
_STATISTICS_TAGS : BPS DURATION NUMBER_OF_FRAMES NUMBER_OF_BYTES
Видео
Идентификатор : 1
Формат : AVC
Формат/Информация : Advanced Video Codec
Профиль формата : High@L4.0
Параметр CABAC формата : Да
Параметр ReFrames формата : 2 кадра
Идентификатор кодека : V_MPEG4/ISO/AVC
Продолжительность : 1 ч. 31 м.
Вид битрейта : Переменный
Ширина : 1920 пикселей
Высота : 1080 пикселей
Соотношение сторон : 16:9
Режим частоты кадров : Постоянный
Частота кадров : 23,976 кадра/сек
Цветовое пространство : YUV
Субдискретизация насыщенности : 4:2:0
Битовая глубина : 8 бит
Тип развёртки : Прогрессивная
Язык : Russian
Default : Да
Forced : Нет
Аудио #1
Идентификатор : 2
Формат : AC-3
Формат/Информация : Audio Coding 3
Расширение режима : CM (complete main)
Параметр Endianness формата : Big
Идентификатор кодека : A_AC3
Продолжительность : 1 ч. 31 м.
Вид битрейта : Постоянный
Битрейт : 192 Кбит/сек
Каналы : 2 канала
Расположение каналов : Front: L R
Частота : 48,0 КГц
Битовая глубина : 16 бит
Метод сжатия : С потерями
Размер потока : 126 Мбайт (1%)
Заголовок : Russian
Язык : Russian
Default : Да
Forced : Нет
Аудио #2
Идентификатор : 3
Формат : DTS
Формат/Информация : Digital Theater Systems
Профиль формата : MA / Core
Режим : 16
Параметр Endianness формата : Big
Идентификатор кодека : A_DTS
Продолжительность : 1 ч. 31 м.
Вид битрейта : Переменный
Битрейт : Неизвестно / 1509 Кбит/сек
Каналы : 6 каналов
Расположение каналов : Front: L C R, Side: L R, LFE
Частота : 48,0 КГц
Битовая глубина : 24 бит
Метод сжатия : Без потерь / Lossy
Язык : English
Default : Нет
Forced : Нет
Аудио #3
Идентификатор : 4
Формат : AC-3
Формат/Информация : Audio Coding 3
Профиль формата : Dolby Digital
Расширение режима : CM (complete main)
Параметр Endianness формата : Big
Идентификатор кодека : A_AC3
Продолжительность : 1 ч. 31 м.
Вид битрейта : Постоянный
Битрейт : 192 Кбит/сек
Каналы : 2 канала
Расположение каналов : Front: L R
Частота : 48,0 КГц
Битовая глубина : 16 бит
Метод сжатия : С потерями
Размер потока : 126 Мбайт (1%)
Заголовок : Комментарии
Язык : English
Default : Нет
Forced : Нет
Аудио #4
Идентификатор : 5
Формат : AC-3
Формат/Информация : Audio Coding 3
Расширение режима : CM (complete main)
Параметр Endianness формата : Big
Идентификатор кодека : A_AC3
Продолжительность : 1 ч. 31 м.
Вид битрейта : Постоянный
Битрейт : 640 Кбит/сек
Каналы : 6 каналов
Расположение каналов : Front: L C R, Side: L R, LFE
Частота : 48,0 КГц
Битовая глубина : 16 бит
Метод сжатия : С потерями
Размер потока : 419 Мбайт (3%)
Заголовок : Комментарии
Язык : English
Default : Нет
Forced : Нет
Текст #1
Идентификатор : 6
Формат : UTF-8
Идентификатор кодека : S_TEXT/UTF8
Идентификатор кодека/Информация : UTF-8 Plain Text
Язык : Russian
Default : Нет
Forced : Нет
Текст #2
Идентификатор : 7
Формат : UTF-8
Идентификатор кодека : S_TEXT/UTF8
Идентификатор кодека/Информация : UTF-8 Plain Text
Язык : English
Default : Нет
Forced : Нет
Текст #3
Идентификатор : 8
Формат : PGS
Режим смешивания : zlib
Идентификатор кодека : S_HDMV/PGS
Идентификатор кодека/Информация : The same subtitle format used on BDs/HD-DVDs
Язык : English
Default : Нет
Forced : Нет
Текст #4
Идентификатор : 9
Формат : PGS
Режим смешивания : zlib
Идентификатор кодека : S_HDMV/PGS
Идентификатор кодека/Информация : The same subtitle format used on BDs/HD-DVDs
Язык : French
Default : Нет
Forced : Нет
Текст #5
Идентификатор : 10
Формат : PGS
Режим смешивания : zlib
Идентификатор кодека : S_HDMV/PGS
Идентификатор кодека/Информация : The same subtitle format used on BDs/HD-DVDs
Язык : Spanish
Default : Нет
Forced : Нет
Текст #6
Идентификатор : 11
Формат : PGS
Режим смешивания : zlib
Идентификатор кодека : S_HDMV/PGS
Идентификатор кодека/Информация : The same subtitle format used on BDs/HD-DVDs
Язык : Spanish
Default : Нет
Forced : Нет
Текст #7
Идентификатор : 12
Формат : PGS
Режим смешивания : zlib
Идентификатор кодека : S_HDMV/PGS
Идентификатор кодека/Информация : The same subtitle format used on BDs/HD-DVDs
Язык : Finnish
Default : Нет
Forced : Нет
Текст #8
Идентификатор : 13
Формат : PGS
Режим смешивания : zlib
Идентификатор кодека : S_HDMV/PGS
Идентификатор кодека/Информация : The same subtitle format used on BDs/HD-DVDs
Язык : Norwegian
Default : Нет
Forced : Нет
Текст #9
Идентификатор : 14
Формат : PGS
Режим смешивания : zlib
Идентификатор кодека : S_HDMV/PGS
Идентификатор кодека/Информация : The same subtitle format used on BDs/HD-DVDs
Язык : Swedish
Default : Нет
Forced : Нет
Меню
00:00:00.000 : en:
00:01:06.065 : en:
00:02:48.084 : en:
00:08:21.792 : en:
00:13:18.839 : en:
00:16:18.435 : en:
00:18:38.700 : en:
00:21:15.107 : en:
00:25:43.917 : en:
00:30:12.018 : en:
00:33:01.562 : en:
00:37:49.058 : en:
00:40:10.408 : en:
00:46:25.616 : en:
00:49:06.944 : en:
00:50:00.789 : en:
00:51:20.994 : en:
00:52:24.808 : en:
00:55:00.505 : en:
00:59:07.877 : en:
01:01:36.693 : en:
01:06:31.946 : en:
01:09:00.845 : en:
01:12:14.079 : en:
01:15:59.346 : en:
01:17:30.103 : en:
01:20:56.142 : en:
01:28:06.781 : en:

Скриншоты











_________________
Показать сообщения:    

Текущее время: Сегодня 15:59

Часовой пояс: GMT



Вы не можете начинать темы
Вы не можете отвечать на сообщения
Вы не можете редактировать свои сообщения
Вы не можете удалять свои сообщения
Вы не можете голосовать в опросах
Вы не можете прикреплять файлы к сообщениям
Вы не можете скачивать файлы