Важное объявление!
У Нас Все раздачи мультитрекерные, при нуле пиров в релизах, можете смело вставать на закачку!
 
Автор Сообщение

HUNTER

Стаж:
4 года 4 месяца
Сообщений:
56842

Репутация: 101

[+] [-]
Вне форума [Профиль] [ЛС]

-Большие радости маленького человека-

Год выпуска: 2006
Страна: Россия
Сайт производителя: отсутствует
Тематика: Обучающая видеопрограмма для детей
Тип материала: Видеоурок-Продолжительность: 00:57:21
Автор: не известен-Язык: Русский
Субтитры: отсутствуют-Описание: Развивающие игрушки и обереги в народном стиле своими руками. Игрушки, которые мы научим вас делать в этом фильме, выполняются на основе народных традиций, из подручных материалов, как шили наши бабушки сотни лет назад. На Руси первые игрушки не только развлекали малыша, но могли являться мощнейшими оберегами, отпугивая от детской кроватки силы зла. Например, считалось, что зайчик из платка снимает болевые ощущения, когда у малыша режутся зубки, а солнечный символ защищает кроху от темных сил. Вещи, сделанные своими руками, имеют особую энергетику, хранят тепло маминых рук, воспитывают у младших членов семьи тягу к творчеству.-Качество: DVDRip
Формат: AVI
Видео кодек: XviD
Аудио кодек: MP3
Видео: 640x360 (1.78:1), 25 fps, XviD build 50 ~1506 kbps avg, 0.26 bit/pixel
Аудио: 48 kHz, MPEG Layer 3, 2 ch, ~184.71 kbps avg-

MediaInfo

Код: copyText_writeLink('this.parentNode.parentNode.nextSibling.nextSibling'); General
Complete name : D:\обучение 25,12\Новая папка\Bolshie.radosti.2006.XviD.DVDRip.avi
Format : AVI
Format/Info : Audio Video Interleave
File size : 699 MiB
Duration : 57mn 21s
Overall bit rate mode : Variable
Overall bit rate : 1 704 Kbps
Writing application : VirtualDubMod 1.5.10.2 (build 2540/release)
Writing library : VirtualDubMod build 2540/release
Video
ID : 0
Format : MPEG-4 Visual
Format profile : Advanced Simple@L5
Format settings, BVOP : 1
Format settings, QPel : No
Format settings, GMC : No warppoints
Format settings, Matrix : Default (H.263)
Codec ID : XVID
Codec ID/Hint : XviD
Duration : 57mn 21s
Bit rate : 1 507 Kbps
Width : 640 pixels
Height : 360 pixels
Display aspect ratio : 16:9
Frame rate : 25.000 fps
Color space : YUV
Chroma subsampling : 4:2:0
Bit depth : 8 bits
Scan type : Progressive
Compression mode : Lossy
Bits/(Pixel*Frame) : 0.262
Stream size : 618 MiB (88%)
Writing library : XviD 1.2.1 (UTC 2008-12-04)
Audio
ID : 1
Format : MPEG Audio
Format version : Version 1
Format profile : Layer 3
Codec ID : 55
Codec ID/Hint : MP3
Duration : 57mn 21s
Bit rate mode : Variable
Bit rate : 192 Kbps
Channel(s) : 2 channels
Sampling rate : 48.0 KHz
Compression mode : Lossy
Stream size : 75.8 MiB (11%)
Alignment : Aligned on interleaves
Interleave, duration : 24 ms (0.60 video frame)
Interleave, preload duration : 509 ms
Writing library : LAME3.98r
Encoding settings : -m s -V 4 -q 2 -lowpass 18.6 --abr 192
- -

_________________
Показать сообщения:    

Текущее время: Сегодня 18:00

Часовой пояс: GMT



Вы не можете начинать темы
Вы не можете отвечать на сообщения
Вы не можете редактировать свои сообщения
Вы не можете удалять свои сообщения
Вы не можете голосовать в опросах
Вы не можете прикреплять файлы к сообщениям
Вы не можете скачивать файлы
Наши партнеры: интернет магазин Ивановского трикотажа textilla.ru