Важное объявление!
У Нас Все раздачи мультитрекерные, при нуле пиров в релизах, можете смело вставать на закачку!
 
Автор Сообщение

HUNTER

Стаж:
4 года 4 месяца
Сообщений:
56839

Репутация: 101

[+] [-]
Вне форума [Профиль] [ЛС]

Большие каникулы / Les grandes vacances-Страна: Франция, Италия
Студия: Les Films Copernic, Ascot, Cineraid
Жанр: комедия
Год выпуска: 1967
Продолжительность: 01:29:56
Перевод 1: Профессиональный (многоголосый закадровый) | Останкино
Перевод 2: Профессиональный (многоголосый закадровый) | Культура
Перевод 3: Профессиональный (многоголосый закадровый) | Светла
Перевод 4: Профессиональный (двухголосый закадровый) | Деваль-Видео
Оригинальная аудиодорожка: французский
Cубтитры: французские (к английским диалогам), английские, немецкие
Режиссер: Жан Жиро / Jean Girault
В ролях: Луи де Фюнес, Ферди Мэйн, Мартина Келли, Франсуа Леччия, Оливье Де Фюнес, Клоди Жансак, Морис Риш, Жак Динам, Доминик Даврэ, Марио Давид
Описание: Мсье Боскье, директор престижной частной школы-интерната, чувствует себя опозоренным, узнав, что его старший сын Филипп провалил экзамен по английскому языку. Боскье решает на время летних каникул отправить сына по языковому обмену в Великобританию, в одну английскую семью, чтобы он улучшил там свой английский. На время его отсутствия в семье Боскье поселится английская школьница Ширли Мак Фаррелл, которая, в свою очередь, будет совершенствоваться во французском.
Однако Филипп не так уж горит желанием ехать куда-то — у него с друзьями намечается летнее путешествие на яхте, о котором он давно мечтал. В Англию вместо себя он отправляет своего школьного друга Мишоне. Оказавшись там, Мишоне заболевает вскоре от непривычной английской еды. Мсье Боскье приезжает навестить своего больного якобы сына и, конечно, обман тут же раскрывается. В это же время его настоящий сын и эта самая их гостья, девчонка-англичанка, вместе весело проводят время где-то на яхте. Боскье тут же отправляется на их поиски — ведь отец Ширли, мистер Мак Фаррелл, того и гляди явится к ним домой, чтобы проведать дочку.- [img]https://rating.kinopoisk.ru/64202.gif[/img]
Релиз: by delia
Рип от: CtrlHD
Тип релиза: BDRip 720p
Контейнер: MKV
Видео: 1280x546 at 24.000 fps, x264@L4.1, ~7200kbps avg
Аудио 1: Russian: 48 kHz, AC3, 2/0 (L,R) ch, ~192 kbps avg |Многоголосый закадровый, Останкино|
Аудио 2: Russian: 48 kHz, AC3, 2/0 (L,R) ch, ~192 kbps avg |Многоголосый закадровый, Культура|
Аудио 3: Russian: 48 kHz, AC3, 2/0 (L,R) ch, ~192 kbps avg |Многоголосый закадровый, Светла|
Аудио 4: Russian: 48 kHz, AC3, 2/0 (L,R) ch, ~192 kbps avg |Двухголосый закадровый, Деваль-Видео|
Аудио 5: Ukrainian: 48 kHz, AC3, 2/0 (L,R) ch, ~192 kbps avg |Многоголосый закадровый, 1+1|
Аудио 6: French: 48 kHz, AC3, 2/0 (L,R) ch, ~320 kbps avg
Формат субтитров: French (forced), English, German
Цитата:
Цитата:

  • За дорожки спасибо Spiellberg.
  • Сохранены оригинальные главы как на Blu-ray.

MediaInfo

General
Unique ID : 206029336147855250410545399827480596578 (0x9AFFCE89D9D48DA19B0B984A4EF25062)
Complete name : D:\Les.Grandes.Vacances.1967.720p.BluRay.4xRus.Ukr.Fre.HDCLUB-CtrlHD.mkv
Format : Matroska
Format version : Version 4 / Version 2
File size : 5.33 GiB
Duration : 1 h 29 min
Overall bit rate : 8 484 kb/s
Encoded date : UTC 2016-10-08 05:38:16
Writing application : mkvmerge v9.4.2 ('So High') 64bit
Writing library : libebml v1.3.4 + libmatroska v1.4.5
Cover : Yes
Attachments : cover.jpg
Video
ID : 1
Format : AVC
Format/Info : Advanced Video Codec
Format profile : High@L4.1
Format settings, CABAC : Yes
Format settings, ReFrames : 11 frames
Codec ID : V_MPEG4/ISO/AVC
Duration : 1 h 29 min
Bit rate : 7 200 kb/s
Width : 1 280 pixels
Height : 546 pixels
Display aspect ratio : 2.35:1
Frame rate mode : Constant
Frame rate : 24.000 FPS
Color space : YUV
Chroma subsampling : 4:2:0
Bit depth : 8 bits
Scan type : Progressive
Bits/(Pixel*Frame) : 0.429
Stream size : 4.52 GiB (85%)
Title : Les Grandes Vacances (1967)
Writing library : x264 core 148 r2705kMod 3f5ed56
Encoding settings : cabac=1 / ref=11 / deblock=1:-3:-3 / analyse=0x3:0x133 / me=umh / subme=10 / psy=1 / fade_compensate=0.00 / psy_rd=1.10:0.00 / mixed_ref=1 / me_range=16 / chroma_me=1 / trellis=2 / 8x8dct=1 / cqm=0 / deadzone=21,11 / fast_pskip=0 / chroma_qp_offset=-2 / threads=6 / lookahead_threads=1 / sliced_threads=0 / nr=0 / decimate=0 / interlaced=0 / bluray_compat=0 / constrained_intra=0 / fgo=0 / bframes=8 / b_pyramid=2 / b_adapt=2 / b_bias=0 / direct=3 / weightb=1 / open_gop=0 / weightp=2 / keyint=250 / keyint_min=24 / scenecut=40 / intra_refresh=0 / rc_lookahead=60 / rc=crf / mbtree=0 / crf=18.0000 / qcomp=0.60 / qpmin=0 / qpmax=69 / qpstep=4 / vbv_maxrate=12500 / vbv_bufsize=12500 / crf_max=0.0 / nal_hrd=none / filler=0 / ip_ratio=1.30 / pb_ratio=1.20 / aq=1:0.80
Language : French
Default : Yes
Forced : No
Audio #1
ID : 2
Format : AC-3
Format/Info : Audio Coding 3
Mode extension : CM (complete main)
Format settings, Endianness : Big
Codec ID : A_AC3
Duration : 1 h 29 min
Bit rate mode : Constant
Bit rate : 192 kb/s
Channel(s) : 2 channels
Channel positions : Front: L R
Sampling rate : 48.0 kHz
Frame rate : 31.250 FPS (1536 spf)
Compression mode : Lossy
Stream size : 124 MiB (2%)
Title : многоголосый закадровый, Останкино
Language : Russian
Default : Yes
Forced : No
Audio #2
ID : 3
Format : AC-3
Format/Info : Audio Coding 3
Mode extension : CM (complete main)
Format settings, Endianness : Big
Codec ID : A_AC3
Duration : 1 h 29 min
Bit rate mode : Constant
Bit rate : 192 kb/s
Channel(s) : 2 channels
Channel positions : Front: L R
Sampling rate : 48.0 kHz
Frame rate : 31.250 FPS (1536 spf)
Compression mode : Lossy
Stream size : 124 MiB (2%)
Title : многоголосый закадровый, Культура
Language : Russian
Default : No
Forced : No
Audio #3
ID : 4
Format : AC-3
Format/Info : Audio Coding 3
Mode extension : CM (complete main)
Format settings, Endianness : Big
Codec ID : A_AC3
Duration : 1 h 29 min
Bit rate mode : Constant
Bit rate : 192 kb/s
Channel(s) : 2 channels
Channel positions : Front: L R
Sampling rate : 48.0 kHz
Frame rate : 31.250 FPS (1536 spf)
Compression mode : Lossy
Stream size : 124 MiB (2%)
Title : многоголосый закадровый, Светла
Language : Russian
Default : No
Forced : No
Audio #4
ID : 5
Format : AC-3
Format/Info : Audio Coding 3
Mode extension : CM (complete main)
Format settings, Endianness : Big
Codec ID : A_AC3
Duration : 1 h 29 min
Bit rate mode : Constant
Bit rate : 192 kb/s
Channel(s) : 2 channels
Channel positions : Front: L R
Sampling rate : 48.0 kHz
Frame rate : 31.250 FPS (1536 spf)
Compression mode : Lossy
Stream size : 124 MiB (2%)
Title : двухголосый закадровый, Деваль-Видео
Language : Russian
Default : No
Forced : No
Audio #5
ID : 6
Format : AC-3
Format/Info : Audio Coding 3
Mode extension : CM (complete main)
Format settings, Endianness : Big
Codec ID : A_AC3
Duration : 1 h 29 min
Bit rate mode : Constant
Bit rate : 192 kb/s
Channel(s) : 2 channels
Channel positions : Front: L R
Sampling rate : 48.0 kHz
Frame rate : 31.250 FPS (1536 spf)
Compression mode : Lossy
Stream size : 124 MiB (2%)
Title : многоголосый закадровый, 1+1
Language : Ukrainian
Default : No
Forced : No
Audio #6
ID : 7
Format : AC-3
Format/Info : Audio Coding 3
Mode extension : CM (complete main)
Format settings, Endianness : Big
Codec ID : A_AC3
Duration : 1 h 29 min
Bit rate mode : Constant
Bit rate : 320 kb/s
Channel(s) : 2 channels
Channel positions : Front: L R
Sampling rate : 48.0 kHz
Frame rate : 31.250 FPS (1536 spf)
Compression mode : Lossy
Stream size : 206 MiB (4%)
Language : French
Default : No
Forced : No
Text #1
ID : 8
Format : UTF-8
Codec ID : S_TEXT/UTF8
Codec ID/Info : UTF-8 Plain Text
Duration : 1 h 20 min
Bit rate : 3 b/s
Count of elements : 66
Stream size : 2.03 KiB (0%)
Title : French-forced
Language : French
Default : No
Forced : No
Text #2
ID : 9
Format : UTF-8
Codec ID : S_TEXT/UTF8
Codec ID/Info : UTF-8 Plain Text
Duration : 1 h 26 min
Bit rate : 37 b/s
Count of elements : 612
Stream size : 23.8 KiB (0%)
Title : English
Language : English
Default : No
Forced : No
Text #3
ID : 10
Format : UTF-8
Codec ID : S_TEXT/UTF8
Codec ID/Info : UTF-8 Plain Text
Duration : 1 h 26 min
Bit rate : 49 b/s
Count of elements : 926
Stream size : 31.8 KiB (0%)
Title : German
Language : German
Default : No
Forced : No
Menu
00:00:00.000 : en:Chapter 1
00:08:21.542 : en:Chapter 2
00:15:07.417 : en:Chapter 3
00:21:12.042 : en:Chapter 4
00:28:59.250 : en:Chapter 5
00:35:36.750 : en:Chapter 6
00:41:44.833 : en:Chapter 7
00:49:13.875 : en:Chapter 8
00:57:13.083 : en:Chapter 9
01:03:25.792 : en:Chapter 10
01:10:17.125 : en:Chapter 11
01:18:05.375 : en:Chapter 12

Скриншоты

Source vs Encode





_________________
Показать сообщения:    

Текущее время: Сегодня 06:22

Часовой пояс: GMT



Вы не можете начинать темы
Вы не можете отвечать на сообщения
Вы не можете редактировать свои сообщения
Вы не можете удалять свои сообщения
Вы не можете голосовать в опросах
Вы не можете прикреплять файлы к сообщениям
Вы не можете скачивать файлы