Важное объявление!
У Нас Все раздачи мультитрекерные, при нуле пиров в релизах, можете смело вставать на закачку!
 
Автор Сообщение

димитри37

Стаж:
3 года 9 месяцев
Сообщений:
1237

Репутация: 127

[+] [-]
Вне форума [Профиль] [ЛС]

Большая Свадьба / The Big Wedding
Страна: США, Two Ton Films, Millennium Films
Жанр: Комедия
Год выпуска: 2013
Продолжительность: 01:29:32
Перевод: Профессиональный дублированный(Чистый звук)
Cубтитры: английские
Оригинальная аудиодорожка: английский
Режиссер: Джастин Закэм / Justin Zackham
В ролях: Аманда Сайфред, Роберт Де Ниро, Кэтрин Хейгл, Робин Уильямс, Тофер Грейс, Сьюзен Сарандон, Дайан Китон, Бен Барнс, Кристин Эберсоул, Марк Блукас
История о современной семье, пытающейся пережить выходные свадебного торжества, которые могут обернуться полным крахом для них. К удивлению своих детей и друзей давно разведенные Дон и Элли Гриффин вынуждены притворяться счастливыми ради свадьбы своего приемного сына, после того как его ультраконсервативная биологическая мать неожиданно решает пролететь через пол мира, чтобы принять участие в этом торжестве…
Сэмпл: http://multi-up.com/892133
Качество видео: BDRip-AVC
Формат видео: MKV
Видео: H264,1280x534,aspect ratio12:5(2.40:1),23.976fps,2530kbps
Аудио 1:48000Hz,448kbps,channels 6(5.1)RUS
Аудио 2:48000Hz,448kbps,channels 6(5.1)ENG
Доп. информация о субтитрах: pgs

MediaInfo

Video
ID : 1
Format : AVC
Format/Info : Advanced Video Codec
Format profile : High@L4.1
Format settings, CABAC : Yes
Format settings, ReFrames : 6 frames
Codec ID : V_MPEG4/ISO/AVC
Duration : 1h 29mn
Bit rate : 2 530 Kbps
Width : 1 280 pixels
Height : 534 pixels
Display aspect ratio : 2.40:1
Original display aspect ratio : 2.40:1
Frame rate mode : Constant
Frame rate : 23.976 fps
Color space : YUV
Chroma subsampling : 4:2:0
Bit depth : 8 bits
Scan type : Progressive
Bits/(Pixel*Frame) : 0.154
Stream size : 1.57 GiB (72%)
Writing library : x264 core 125 r2208 d9d2288
Encoding settings : cabac=1 / ref=6 / deblock=1:-2:-2 / analyse=0x3:0x113 / me=umh / subme=11 / psy=1 / psy_rd=1.00:0.00 / mixed_ref=1 / me_range=32 / chroma_me=1 / trellis=2 / 8x8dct=1 / cqm=0 / deadzone=21,11 / fast_pskip=1 / chroma_qp_offset=-2 / threads=6 / lookahead_threads=1 / sliced_threads=0 / nr=0 / decimate=0 / interlaced=0 / bluray_compat=0 / constrained_intra=0 / bframes=6 / b_pyramid=2 / b_adapt=2 / b_bias=0 / direct=3 / weightb=1 / open_gop=1 / weightp=2 / keyint=240 / keyint_min=23 / scenecut=40 / intra_refresh=0 / rc_lookahead=240 / rc=2pass / mbtree=1 / bitrate=2530 / ratetol=1.0 / qcomp=0.60 / qpmin=0 / qpmax=69 / qpstep=4 / cplxblur=20.0 / qblur=0.5 / ip_ratio=1.40 / aq=1:1.00
Language : English
Default : Yes
Forced : No
Audio #1
ID : 2
Format : AC-3
Format/Info : Audio Coding 3
Mode extension : CM (complete main)
Format settings, Endianness : Big
Codec ID : A_AC3
Duration : 1h 29mn
Bit rate mode : Constant
Bit rate : 448 Kbps
Channel(s) : 6 channels
Channel positions : Front: L C R, Side: L R, LFE
Sampling rate : 48.0 KHz
Bit depth : 16 bits
Compression mode : Lossy
Stream size : 287 MiB (13%)
Default : Yes
Forced : No
Audio #2
ID : 3
Format : AC-3
Format/Info : Audio Coding 3
Mode extension : CM (complete main)
Format settings, Endianness : Big
Codec ID : A_AC3
Duration : 1h 29mn
Bit rate mode : Constant
Bit rate : 448 Kbps
Channel(s) : 6 channels
Channel positions : Front: L C R, Side: L R, LFE
Sampling rate : 48.0 KHz
Bit depth : 16 bits
Compression mode : Lossy
Stream size : 287 MiB (13%)
Default : No
Forced : No
Text
ID : 4
Format : PGS
Codec ID : S_HDMV/PGS
Codec ID/Info : The same subtitle format used on BDs/HD-DVDs
Language : English
Default : No
Forced : No
Menu
00:00:00.000 : en:Divorce Is a Sin
00:07:27.738 : en:Wait For Love
00:12:42.887 : en:Moved Out
00:20:57.214 : en:Just Pretend
00:28:32.669 : en:Confession
00:36:18.467 : en:Your Blessing
00:43:38.365 : en:Buenas Noches
00:51:07.981 : en:What About Bebel
00:59:10.463 : en:I Forgive You
01:08:03.245 : en:Eloping
01:16:01.056 : en:The Answer Is Yes
01:22:41.998 : en:End Credits

Скриншот c названием фильма

Скриншоты


-Источник:
Показать сообщения:    

Текущее время: Сегодня 01:33

Часовой пояс: GMT



Вы не можете начинать темы
Вы не можете отвечать на сообщения
Вы не можете редактировать свои сообщения
Вы не можете удалять свои сообщения
Вы не можете голосовать в опросах
Вы не можете прикреплять файлы к сообщениям
Вы не можете скачивать файлы
Наши партнеры: интернет магазин Ивановского трикотажа textilla.ru