Важное объявление!
У Нас Все раздачи мультитрекерные, при нуле пиров в релизах, можете смело вставать на закачку!
 
Автор Сообщение

HUNTER

Стаж:
4 года 4 месяца
Сообщений:
56755

Репутация: 101

[+] [-]
Вне форума [Профиль] [ЛС]

Болельщицы на пляже / Cheerleaders Beach Party-
Страна: США
Жанр: комедия
Год выпуска: 1978
Продолжительность: 01:21:31-Перевод: Профессиональный (двухголосый закадровый) НТВ+ | Ольга Плетнёва, Михаил Тихонов
Cубтитры: нет
Оригинальная аудиодорожка: английский-Режиссер: Алекс Гойтейн / Alex E. Goitein
В ролях: Линн Хатингс, Джэми Дженсен, Элизабет Лоредан, Глория Апсон, Шошана Ашер, Мальвина Голден, Шери Сауси...- | Релиз: -Описание: Честь колледжа в опасности. Лучшие игроки футбольной команды перешли в команду соперника. Четыре соблазнительные девушки-болельщицы отправляются в лагерь противника на пляж, чтобы вернуть своих игроков…-Семпл: http://sendfile.su/1146046-Тип релиза: HDTV 1080i
Контейнер: TS
Видео: 1920x1080i (16:9), 25.000 fps, AVC, ~7519 kbps, 0.145 bits/pixel
Аудио 1: Русский, 48.0 KHz, MPEG-1 Audio layer 2, 2 ch, 192 kbps
Аудио 2: English, 48.0 KHz, MPEG-1 Audio layer 2, 2 ch, 192 kbps

MediaInfo

GeneralID : 1 (0x1)Complete name : Cheerleaders Beach Party 1978 MGMHD 1080i.rus.eng.tsFormat : MPEG-TSFile size : 4.74 GiBDuration : 1h 21mnOverall bit rate mode : VariableOverall bit rate : 8 318 KbpsMaximum Overall bit rate : 35.5 Mbps
VideoID : 4113 (0x1011)Menu ID : 1 (0x1)Format : AVCFormat/Info : Advanced Video CodecFormat profile : Main@L4Format settings, CABAC : YesFormat settings, ReFrames : 4 framesFormat settings, GOP : M=4, N=28Codec ID : 27Duration : 1h 21mnBit rate : 7 519 KbpsWidth : 1 920 pixelsHeight : 1 080 pixelsDisplay aspect ratio : 16:9Frame rate : 25.000 fpsStandard : ComponentColor space : YUVChroma subsampling : 4:2:0Bit depth : 8 bitsScan type : InterlacedScan order : Top Field FirstBits/(Pixel*Frame) : 0.145Stream size : 4.28 GiB (90%)Color range : LimitedColor primaries : BT.709Transfer characteristics : BT.709Matrix coefficients : BT.709
Audio #1ID : 4352 (0x1100)Menu ID : 1 (0x1)Format : MPEG AudioFormat version : Version 1Format profile : Layer 2Codec ID : 4Duration : 1h 21mnBit rate mode : ConstantBit rate : 192 KbpsChannel(s) : 2 channelsSampling rate : 48.0 KHzCompression mode : LossyStream size : 112 MiB (2%)Language : Russian
Audio #2ID : 4353 (0x1101)Menu ID : 1 (0x1)Format : MPEG AudioFormat version : Version 1Format profile : Layer 2Codec ID : 4Duration : 1h 21mnBit rate mode : ConstantBit rate : 192 KbpsChannel(s) : 2 channelsSampling rate : 48.0 KHzCompression mode : LossyStream size : 112 MiB (2%)Language : English

_________________
Показать сообщения:    

Текущее время: Сегодня 15:35

Часовой пояс: GMT



Вы не можете начинать темы
Вы не можете отвечать на сообщения
Вы не можете редактировать свои сообщения
Вы не можете удалять свои сообщения
Вы не можете голосовать в опросах
Вы не можете прикреплять файлы к сообщениям
Вы не можете скачивать файлы