Важное объявление!
У Нас Все раздачи мультитрекерные, при нуле пиров в релизах, можете смело вставать на закачку!
 
Автор Сообщение

HUNTER

Стаж:
4 года 4 месяца
Сообщений:
56772

Репутация: 101

[+] [-]
Вне форума [Профиль] [ЛС]

-Боги Египта
Gods of Egypt
-
Год выпуска: 2016
Страна: США (Lionsgate Company, Summit Entertainment, Mystery Clock Cinema, TIK Films, A Thunder Road Pictures)
Жанр: Фэнтези, Боевик, Приключения
Продолжительность: 02:07:03
Перевод: Профессиональный дублированный
Режиссер: Алекс Пройас / Alex Proyas-Роли исполняли (дублировали):

Bek - Брентон Туэйтс (Станислав Тикунов)
Set - Джерард Батлер (Владимир Антоник)
Horus - Николай Костер-Вальдау (Илья Исаев)
Thoth - Чедвик Боузман (Сергей Смирнов)
Hathor - Элоди Юнг (Ирина Киреева)
Zaya - Кортни Итон (Лина Иванова)
Urshu - Руфус Сьюэлл (Василий Дахненко)
Ra - Джеффри Раш (Борис Клюев)
Osiris - Брайан Браун (Андрей Градов)
Isis - Рэйчел Блейк (Рамиля Искандер)
Nephthys - Эмма Бут
Mnevis - Александр Инглэнд (Александр Коврижных)
Anubis - Горан Д’Клюе (Сергей Чихачев)
-Описание: Некогда мирное и процветающее египетское царство погружается в хаос: беспощадный бог тьмы Сет убивает своего брата Осириса и узурпирует трон. Вызов ему неожиданно бросает простой смертный, находчивый молодой вор. Чтобы вернуть к жизни свою прекрасную возлюбленную, ему приходится заручиться поддержкой могущественного и мстительного бога Гора. Лишь выдержав испытание на прочность и принеся в жертву все самое дорогое, им удастся противостоять Сету и его приспешникам в мире живых и мире мертвых.

Знаете ли вы, что...

  • Сет в мифологии древнего Египта — ещё и бог войны.
  • Это первый художественный фильм Алекса Пройаса за семь лет.
  • Для участия в съёмках актёру Николаю Костеру-Вальдау пришлось сбросить вес.
  • В фильме не занят ни один актёр из Египта.
  • Это первый фильм, снятый на камеру с новыми линзами «Primo 70» компании «Panavision».
  • Около 200 человек (от актёров до членов съёмочной группы и техников) из принимавших участие в работе над фильмом «Боги Египта» прежде работали в фильме «Безумный Макс: Дорога ярости» (2015). Это старший ассистент режиссёра (П. Дж. Вотен), руководитель группы спецэффектов (Джулиан Димси), каскадёры (Тим Вонг и другие), актёры (Кортни Итон, Эбби Ли, Брюс Спенс и другие) и многие другие.
  • Сюжет фильма основан на древнеегипетских мифах о борьбе между богами Гором и Сетом за власть в Египте.
  • Съёмки эпизодов в пустыне Сахара проходили в Австралии. Авторы фильма сочли съёмки в самой пустыне Сахара чересчур опасными.
  • Это вторая совместная работа британского актёра Руфуса Сьюэлла и режиссёра Алекса Пройаса. Первым стал фильм «Тёмный город» (1998).
  • При бюджете фильма в 140 миллионов долларов, «Lionsgate» и её дочерней компании «Summit» он обошёлся всего в 10 миллионов долларов или около того благодаря налоговым льготам, предусмотренным австралийским законодательством, и предварительным продажам в международном масштабе.
  • На доспехах Сета отчётливо прослеживается тема шакала, хотя с этим животным у египтян ассоциировался бог Анубис, проводник умерших в загробный мир.
  • Божества носят одежду или доспехи, соответствующие их образу в древнеегипетской мифологии. Доспехи Сета и Гора напоминают их традиционных животных шакала и сокола, шлемы Хатхор и Тота имеют форму головы коровы и ибиса.
  • Оружие, которым действуют божества, называется «боевой скипетр». В древнем Египте оно ассоциировалось с правителями — богами и фараонами.
  • Джерард Батлер впоследствии рассказывал, что как только прочёл в сценарии слово «Бог» применительно к его персонажу, то сразу понял, что придётся заняться своим телом. Актёр сразу же начал тренировки, потому что ему хотелось к началу съёмок выглядеть «соответствующим образом».
  • Алекс Пройас и компания «Lionsgate» были вынуждены извиняться за преимущественно белый актёрский состав фильма.
    Осторожно, следующий факт содержит спойлер!
  • В фильме Гору вырывают оба глаза, а затем один возвращают. В мифологии он изначально лишился только одного глаза.

Ошибка в фильме

  • В эпизоде, когда боги и человек идут по водоему, уровень воды по ногам у них одинаковый, несмотря на огромную разницу в росте.
Премьера: 24 февраля 2016 (25 февраля 2016)
Релиз на Blu-Ray (Россия): 20 июня 2016
Бюджет: $140 000 000
Кассовые сборы: $142 232 704

. .
За исходный BD 3D Remux спасибо и Dreamcatcher!
-Качество: BDRip (by Ash61)
Контейнер: MKV
Формат 3D: Half OverUnder / Вертикальная анаморфная стереопара
Порядок ракурсов: левый ракурс первый-Видео: AVC / 23,976 fps / 1920х1080p / 11.8 Mbps
Аудио:
#1 - Русский / AC3 / 48 KHz / 5.1 ch / 640 Kbps (Дубляж)
#2 - Английский / AC3 / 48 KHz / 5.1 ch / 640 Kbps (Original - BD 3D)
Субтитры (внешние SRT UTF-8):
#1 - English Full
#2 - English SDH

MediaInfo

General
Unique ID : 214052072019390858586505375338663768768 (0xA108EDF4C32C86A5843C2A6D3073F2C0)
Complete name : E:\GodsOfEgypt(2016)3D-halfOU(Ash61)\GodsOfEgypt(2016)3D-halfOU(Ash61).mkv
Format : Matroska
Format version : Version 2
File size : 11.9 GiB
Duration : 2h 7mn
Overall bit rate : 13.4 Mbps
Movie name : Боги Египта / Gods of Egypt (2016) в 3Д
Encoded date : UTC 2016-05-21 08:24:16
Writing application : mkvmerge v5.8.0 ('No Sleep / Pillow') built on Sep 2 2012 15:37:04
Writing library : libebml v1.2.3 + libmatroska v1.3.0
Video
ID : 1
Format : AVC
Format/Info : Advanced Video Codec
Format profile : High@L4.1
Format settings, CABAC : Yes
Format settings, ReFrames : 4 frames
Codec ID : V_MPEG4/ISO/AVC
Duration : 2h 7mn
Bit rate : 11.8 Mbps
Width : 1 920 pixels
Height : 1 080 pixels
Display aspect ratio : 16:9
Frame rate mode : Constant
Frame rate : 23.976 fps
Color space : YUV
Chroma subsampling : 4:2:0
Bit depth : 8 bits
Scan type : Progressive
Bits/(Pixel*Frame) : 0.238
Stream size : 10.5 GiB (88%)
Title : BDRip by Ash61
Writing library : x264 core 146 r2538 121396c
Encoding settings : cabac=1 / ref=4 / deblock=1:-3:-3 / analyse=0x3:0x113 / me=umh / subme=10 / psy=1 / psy_rd=1.00:0.00 / mixed_ref=1 / me_range=32 / chroma_me=1 / trellis=2 / 8x8dct=1 / cqm=0 / deadzone=21,11 / fast_pskip=1 / chroma_qp_offset=-2 / threads=12 / lookahead_threads=3 / sliced_threads=0 / nr=0 / decimate=1 / interlaced=0 / bluray_compat=0 / constrained_intra=0 / bframes=12 / b_pyramid=2 / b_adapt=2 / b_bias=0 / direct=3 / weightb=1 / open_gop=0 / weightp=2 / keyint=250 / keyint_min=23 / scenecut=40 / intra_refresh=0 / rc_lookahead=60 / rc=crf / mbtree=1 / crf=15.5 / qcomp=0.70 / qpmin=0 / qpmax=69 / qpstep=4 / vbv_maxrate=40000 / vbv_bufsize=30000 / crf_max=0.0 / nal_hrd=none / filler=0 / frame-packing=4 / ip_ratio=1.40 / aq=1:0.70
Language : English
Default : Yes
Forced : No
Audio #1
ID : 2
Format : AC-3
Format/Info : Audio Coding 3
Mode extension : CM (complete main)
Format settings, Endianness : Big
Codec ID : A_AC3
Duration : 2h 7mn
Bit rate mode : Constant
Bit rate : 640 Kbps
Channel(s) : 6 channels
Channel positions : Front: L C R, Side: L R, LFE
Sampling rate : 48.0 KHz
Bit depth : 16 bits
Compression mode : Lossy
Stream size : 582 MiB (5%)
Title : Дубляж
Language : Russian
Default : Yes
Forced : No
Audio #2
ID : 3
Format : AC-3
Format/Info : Audio Coding 3
Mode extension : CM (complete main)
Format settings, Endianness : Big
Codec ID : A_AC3
Duration : 2h 7mn
Bit rate mode : Constant
Bit rate : 640 Kbps
Channel(s) : 6 channels
Channel positions : Front: L C R, Side: L R, LFE
Sampling rate : 48.0 KHz
Bit depth : 16 bits
Compression mode : Lossy
Stream size : 582 MiB (5%)
Title : Original
Language : English
Default : No
Forced : No
Menu
00:00:00.000 : :1
00:07:08.009 : :2
00:18:07.544 : :3
00:23:47.259 : :4
00:30:11.808 : :5
00:39:16.519 : :6
00:46:30.621 : :7
00:54:46.074 : :8
01:01:14.128 : :9
01:09:29.038 : :10
01:18:03.345 : :11
01:28:18.251 : :12
01:36:12.056 : :13
01:39:14.655 : :14
01:46:58.328 : :15
01:52:11.015 : :16

Для оценки 3Д - Анимированные скрины





















_________________
Показать сообщения:    

Текущее время: Сегодня 10:59

Часовой пояс: GMT



Вы не можете начинать темы
Вы не можете отвечать на сообщения
Вы не можете редактировать свои сообщения
Вы не можете удалять свои сообщения
Вы не можете голосовать в опросах
Вы не можете прикреплять файлы к сообщениям
Вы не можете скачивать файлы