Важное объявление!
У Нас Все раздачи мультитрекерные, при нуле пиров в релизах, можете смело вставать на закачку!
 
Автор Сообщение

Shalun

Стаж:
4 года 4 месяца
Сообщений:
802

Репутация: 123

[+] [-]
Вне форума [Профиль] [ЛС]

Боги арены / Kingdom of Gladiators-«The duel they never expected is about to begin.»-
Год выпуска: 2011
Страна: США Италия
Жанр: Фэнтези, Боевик, Приключения
Продолжительность: 01:21:25
Перевод: Профессиональный (многоголосый закадровый) [Лицензия!]
Субтитры: нет-Режиссер:
  • Стефано Милла / Stefano Milla
В ролях:
  • Маурицио Корильяно, Шарон Фрайер, Сюзи Лоррейн, Брайан Мерфи, Мэтт Полински, Энни Сошиал и др.
-Описание: Они выходят на арену, где смерть — лучшее развлечение для толпы. Они должны бороться за выживание и усвоить жестокие правила мира гладиаторов. Рожденные войной, они не ведают страха, не знают любви, не чувствуют слабости и не испытывают жалости. Они вступают в схватку, чтобы победить или умереть.-Качество: DVDRip
Формат: AVI
Видео кодек: XviD
Аудио кодек: AC3
Видео: 720x400 (16:9), 25 fps, XviD build 50 ~1998 kbps avg, 0.278 bit/pixel
Аудио: 48 kHz, AC3 Dolby Digital, 3/2 (L,C,R,l,r) + LFE ch, ~384.00 kbps avg-Релиз от
- - -

Отчёт Mediainfo

Complete name : Bogi.areny.2011.XviD.DVDRip.IRONCLUB.avi
Format : AVI
Format/Info : Audio Video Interleave
File size : 1.36 GiB
Duration : 1h 21mn
Overall bit rate : 2 392 Kbps
Movie name : Kingdom.Of.Gladiators.2011.DVDRip.IRONCLUB
Director : -=IRONCLUB=-
Writing application : VirtualDubMod 1.5.10.2 (build 2540/release)
Original source form/Name : Movie
Video
ID : 0
Format : MPEG-4 Visual
Format profile : Advanced Simple@L5
Format settings, BVOP : No
Format settings, QPel : No
Format settings, GMC : No warppoints
Format settings, Matrix : Custom
Codec ID : XVID
Codec ID/Hint : XviD
Duration : 1h 21mn
Bit rate : 1 998 Kbps
Width : 720 pixels
Height : 400 pixels
Display aspect ratio : 16:9
Frame rate : 25.000 fps
Color space : YUV
Chroma subsampling : 4:2:0
Bit depth : 8 bits
Scan type : Progressive
Compression mode : Lossy
Bits/(Pixel*Frame) : 0.278
Stream size : 1.14 GiB (84%)
Writing library : XviD 1.2.1 (UTC 2008-12-04)
Audio
ID : 1
Format : AC-3
Format/Info : Audio Coding 3
Mode extension : CM (complete main)
Codec ID : 2000
Duration : 1h 21mn
Bit rate mode : Constant
Bit rate : 384 Kbps
Channel(s) : 6 channels
Channel positions : Front: L C R, Side: L R, LFE
Sampling rate : 48.0 KHz
Bit depth : 16 bits
Compression mode : Lossy
Stream size : 224 MiB (16%)
Alignment : Split accross interleaves
Interleave, duration : 40 ms (1.00 video frame)
Interleave, preload duration : 500 ms

Скриншоты


_________________
Показать сообщения:    

Текущее время: Сегодня 02:35

Часовой пояс: GMT



Вы не можете начинать темы
Вы не можете отвечать на сообщения
Вы не можете редактировать свои сообщения
Вы не можете удалять свои сообщения
Вы не можете голосовать в опросах
Вы не можете прикреплять файлы к сообщениям
Вы не можете скачивать файлы