Важное объявление!
У Нас Все раздачи мультитрекерные, при нуле пиров в релизах, можете смело вставать на закачку!
 
Автор Сообщение

HUNTER

Стаж:
4 года 4 месяца
Сообщений:
56839

Репутация: 101

[+] [-]
Вне форума [Профиль] [ЛС]

Бог знает, мистер Аллисон / Heaven Knows, Mr. Allison
Страна: США
Студия: 20th Century Fox Film Corporation
Жанр: боевик, драма, приключения, военный
Год выпуска: 1957
Продолжительность: 01:46:09
Перевод: Профессиональный (двухголосый закадровый) 1 канал
Перевод 2: Авторский (одноголосый закадровый) С.Кузнецов
Cубтитры: английские (full, SDH)
Оригинальная аудиодорожка: английский
Режиссер: Джон Хьюстон / John Huston
В ролях: Дебора Керр, Роберт Митчэм, Фусамото Такасими, Нобору Йошида
Описание: Морской пехотинец и монашка на маленьком атолле в Тихом океане прячутся от японцев, пытаясь скрыть свои чувства друг от друга. Джон Хьюстон поставил картину с хорошим юмором, сопоставив чувство долга и верность уставу монашенки и солдата морской пехоты. Захватывающе поставлены сцены, когда в расположении японского отряда пехотинец нападает на хранилище пищевых припасов и похищает, сколько может унести.

Sample
Тип релиза: BDRip 720p - LolHD
Контейнер: MKV
Видео: MPEG4 AVC Video, H264, 1280x544, 23,976 fps, 12.0 Mbps
Аудио: Russian (AC3, 2 ch, 192 kbps, 16 bits, 48.0 KHz) - DVO 1 канал
Аудио 2: Russian (AC3, 2 ch, 192 kbps, 16 bits, 48.0 KHz) - AVO С.Кузнецов
Аудио 3: English (FLAC, 1 ch, 200 kbps, 16 bits, 48.0 KHz) - оригинал
Формат субтитров: softsub (SRT)

MediaInfo

log x264
x264 [info]: frame I:889 Avg QP:18.03 size:115635
x264 [info]: frame P:28036 Avg QP:18.65 size: 82527
x264 [info]: frame B:123799 Avg QP:19.96 size: 59386
x264 [info]: consecutive B-frames: 1.2% 1.3% 3.4% 10.6% 10.5% 52.3% 7.0% 2.9% 4.2% 2.6% 3.9%
General
Unique ID : 251712768934667381500930210678634030680 (0xBD5E1DAC1EACE146BF2CF0A738B1A658)
Complete name : E:\1\Heaven Knows, Mr. Allison 1957 BDRip 720p-LolHD.mkv
Format : Matroska
Format version : Version 4 / Version 2
File size : 9.53 GiB
Duration : 1h 46mn
Overall bit rate mode : Variable
Overall bit rate : 12.9 Mbps
Encoded date : UTC 2014-08-08 10:31:34
Writing application : mkvmerge v6.1.0 ('Old Devil') built on Mar 2 2013 14:32:37
Writing library : libebml v1.3.0 + libmatroska v1.4.0
Video
ID : 1
Format : AVC
Format/Info : Advanced Video Codec
Format profile : High@L4.1
Format settings, CABAC : Yes
Format settings, ReFrames : 12 frames
Codec ID : V_MPEG4/ISO/AVC
Duration : 1h 46mn
Width : 1 280 pixels
Height : 544 pixels
Display aspect ratio : 2.35:1
Frame rate mode : Constant
Frame rate : 23.976 fps
Color space : YUV
Chroma subsampling : 4:2:0
Bit depth : 8 bits
Scan type : Progressive
Writing library : x264 core 142 r2431kMod ac76440
Encoding settings : cabac=1 / ref=12 / deblock=1:-3:-3 / analyse=0x3:0x133 / me=umh / subme=10 / psy=1 / fade_compensate=0.00 / psy_rd=1.10:0.00 / mixed_ref=1 / me_range=24 / chroma_me=1 / trellis=2 / 8x8dct=1 / cqm=0 / deadzone=21,11 / fast_pskip=0 / chroma_qp_offset=-2 / threads=24 / lookahead_threads=4 / sliced_threads=0 / nr=0 / decimate=0 / interlaced=0 / bluray_compat=0 / constrained_intra=0 / fgo=0 / bframes=10 / b_pyramid=2 / b_adapt=2 / b_bias=0 / direct=3 / weightb=1 / open_gop=0 / weightp=2 / keyint=250 / keyint_min=23 / scenecut=40 / intra_refresh=0 / rc=crf / mbtree=0 / crf=16.6000 / qcomp=0.65 / qpmin=0 / qpmax=69 / qpstep=4 / ip_ratio=1.20 / pb_ratio=1.20 / aq=3:0.60
Language : English
Default : Yes
Forced : No
Audio #1
ID : 2
Format : AC-3
Format/Info : Audio Coding 3
Mode extension : CM (complete main)
Format settings, Endianness : Big
Codec ID : A_AC3
Duration : 1h 46mn
Bit rate mode : Constant
Bit rate : 192 Kbps
Channel count : 2 channels
Channel positions : Front: L R
Sampling rate : 48.0 KHz
Bit depth : 16 bits
Compression mode : Lossy
Stream size : 146 MiB (1%)
Title : 1 канал
Language : Russian
Default : Yes
Forced : No
Audio #2
ID : 3
Format : AC-3
Format/Info : Audio Coding 3
Mode extension : CM (complete main)
Format settings, Endianness : Big
Codec ID : A_AC3
Duration : 1h 46mn
Bit rate mode : Constant
Bit rate : 192 Kbps
Channel count : 2 channels
Channel positions : Front: L R
Sampling rate : 48.0 KHz
Bit depth : 16 bits
Compression mode : Lossy
Stream size : 146 MiB (1%)
Title : Кузнецов
Language : Russian
Default : No
Forced : No
Audio #3
ID : 4
Format : FLAC
Format/Info : Free Lossless Audio Codec
Codec ID : A_FLAC
Duration : 1h 46mn
Bit rate mode : Variable
Channel count : 1 channel
Sampling rate : 48.0 KHz
Bit depth : 16 bits
Writing library : libFLAC 20080709 (UTC 2008-07-09)
Language : English
Default : No
Forced : No
Text #1
ID : 5
Format : UTF-8
Codec ID : S_TEXT/UTF8
Codec ID/Info : UTF-8 Plain Text
Language : English
Default : No
Forced : No
Text #2
ID : 6
Format : UTF-8
Codec ID : S_TEXT/UTF8
Codec ID/Info : UTF-8 Plain Text
Title : SDH
Language : English
Default : No
Forced : No

Source vs Encode

Source / Encode(LolHD) / AMIABLE

Скриншоты


_________________
Показать сообщения:    

Текущее время: Сегодня 04:02

Часовой пояс: GMT



Вы не можете начинать темы
Вы не можете отвечать на сообщения
Вы не можете редактировать свои сообщения
Вы не можете удалять свои сообщения
Вы не можете голосовать в опросах
Вы не можете прикреплять файлы к сообщениям
Вы не можете скачивать файлы