Важное объявление!
У Нас Все раздачи мультитрекерные, при нуле пиров в релизах, можете смело вставать на закачку!
 
Автор Сообщение

HUNTER

Стаж:
4 года 4 месяца
Сообщений:
56808

Репутация: 101

[+] [-]
Вне форума [Профиль] [ЛС]

Бог знает, мистер Аллисон / Heaven Knows, Mr. Allison
Страна: США
Студия: 20th Century Fox Film Corporation
Жанр: боевик, драма, приключения, военный
Год выпуска: 1957
Продолжительность: 01:46:09
Перевод: Профессиональный (двухголосый закадровый) 1 канал
Перевод 2: Авторский (одноголосый закадровый) С.Кузнецов
Cубтитры: английские
Оригинальная аудиодорожка: английский
Режиссер: Джон Хьюстон / John Huston
В ролях: Дебора Керр, Роберт Митчэм, Фусамото Такасими, Нобору Йошида
Описание: Морской пехотинец и монашка на маленьком атолле в Тихом океане прячутся от японцев, пытаясь скрыть свои чувства друг от друга. Джон Хьюстон поставил картину с хорошим юмором, сопоставив чувство долга и верность уставу монашенки и солдата морской пехоты. Захватывающе поставлены сцены, когда в расположении японского отряда пехотинец нападает на хранилище пищевых припасов и похищает, сколько может унести.

Sample
Тип релиза: BDRemux 1080p
Контейнер: MKV
Видео: MPEG4 AVC Video, H264, 1920x1080, 23,976 fps, 34995 Kbps
Аудио: Russian (AC3, 2 ch, 192 kbps, 16 bits, 48.0 KHz) - DVO 1 канал
Аудио 2: Russian (AC3, 2 ch, 192 kbps, 16 bits, 48.0 KHz) - AVO С.Кузнецов
Аудио 3: English (DTS-HD MA, 1 ch, 1059 kbps, 24 bits, 48.0 KHz / DTS core: 1 ch, 768 kbps, 24 bits, 48.0 KHz) - оригинал
Формат субтитров: softsub (SRT)

MediaInfo
General
Unique ID : 228613148649837650932713096506113685573 (0xABFD4A763AB9147086BD1FE9B8CA7845)
Complete name : E:\1\Heaven Knows, Mr. Allison\Heaven Knows, Mr. Allison 1957 BDRemux.mkv
Format : Matroska
Format version : Version 4 / Version 2
File size : 26.9 GiB
Duration : 1h 46mn
Overall bit rate mode : Variable
Overall bit rate : 36.3 Mbps
Encoded date : UTC 2014-07-14 12:57:01
Writing application : mkvmerge v6.1.0 ('Old Devil') built on Mar 2 2013 14:32:37
Writing library : libebml v1.3.0 + libmatroska v1.4.0
Video
ID : 1
Format : AVC
Format/Info : Advanced Video Codec
Format profile : High@L4.1
Format settings, CABAC : Yes
Format settings, ReFrames : 4 frames
Codec ID : V_MPEG4/ISO/AVC
Duration : 1h 46mn
Bit rate mode : Variable
Maximum bit rate : 38.0 Mbps
Width : 1 920 pixels
Height : 1 080 pixels
Display aspect ratio : 16:9
Frame rate mode : Constant
Frame rate : 23.976 fps
Color space : YUV
Chroma subsampling : 4:2:0
Bit depth : 8 bits
Scan type : Progressive
Language : English
Default : Yes
Forced : No
Audio #1
ID : 2
Format : AC-3
Format/Info : Audio Coding 3
Mode extension : CM (complete main)
Format settings, Endianness : Big
Codec ID : A_AC3
Duration : 1h 46mn
Bit rate mode : Constant
Bit rate : 192 Kbps
Channel count : 2 channels
Channel positions : Front: L R
Sampling rate : 48.0 KHz
Bit depth : 16 bits
Compression mode : Lossy
Stream size : 146 MiB (1%)
Title : 1 канал
Language : Russian
Default : Yes
Forced : No
Audio #2
ID : 3
Format : AC-3
Format/Info : Audio Coding 3
Mode extension : CM (complete main)
Format settings, Endianness : Big
Codec ID : A_AC3
Duration : 1h 46mn
Bit rate mode : Constant
Bit rate : 192 Kbps
Channel count : 2 channels
Channel positions : Front: L R
Sampling rate : 48.0 KHz
Bit depth : 16 bits
Compression mode : Lossy
Stream size : 146 MiB (1%)
Title : С.Кузнецов
Language : Russian
Default : No
Forced : No
Audio #3
ID : 4
Format : DTS
Format/Info : Digital Theater Systems
Format profile : MA / Core
Mode : 16
Format settings, Endianness : Big
Codec ID : A_DTS
Duration : 1h 46mn
Bit rate mode : Variable
Bit rate : Unknown / 768 Kbps
Channel count : 1 channel
Channel positions : Front: C
Sampling rate : 48.0 KHz
Bit depth : 24 bits
Compression mode : Lossless / Lossy
Language : English
Default : No
Forced : No
Text
ID : 5
Format : UTF-8
Codec ID : S_TEXT/UTF8
Codec ID/Info : UTF-8 Plain Text
Language : English
Default : No
Forced : No
Скриншоты

_________________
Показать сообщения:    

Текущее время: Сегодня 13:24

Часовой пояс: GMT



Вы не можете начинать темы
Вы не можете отвечать на сообщения
Вы не можете редактировать свои сообщения
Вы не можете удалять свои сообщения
Вы не можете голосовать в опросах
Вы не можете прикреплять файлы к сообщениям
Вы не можете скачивать файлы