Важное объявление!
У Нас Все раздачи мультитрекерные, при нуле пиров в релизах, можете смело вставать на закачку!
 
Автор Сообщение

HUNTER

Стаж:
4 года 4 месяца
Сообщений:
56798

Репутация: 101

[+] [-]
Вне форума [Профиль] [ЛС]

Бобер / The Beaver
Страна: США, ОАЭ
Жанр: драма
Год выпуска: 2011
Продолжительность: 01:31:01
Перевод: Профессиональный (дублированный) | R5
Cубтитры: русские (BD, voronine), английские
Оригинальная аудиодорожка: английский
Режиссер: Джоди Фостер / Jodie Foster
В ролях: Мэл Гибсон, Джоди Фостер, Черри Джонс, Антон Ельчин, Райли Стюарт, Захари Бут, Дженнифер Лоуренс, Джефф Корбетт, Бэйлен Томас, Сэм Бреслин Райт
Описание: Уолтер Блэк — успешный бизнесмен, счастливый муж и отец. Одно несчастье — депрессия отравляет все его существование. Полноту и радость жизни Уолтеру возвращает… кукла бобер. Надев ее на руку, Уолтер обретает второе дыхание. Говорящий бобер восстанавливает мир в его отношениях с женой, делает Уолтера кумиром детей и даже берет на себя управление компанией...

Доп. информация: дубляж заново перетянут с русского блюра, спасибо HDCLUB
Тип релиза: BDRip 720p (от CtrlHD) | sample
Контейнер: MKV
Видео кодек: x264
Видео: AVC 1280x534 (2.40:1), 23.976 fps, ~3300 Kbps, 0.20 bit/pixel
Аудио #1: Russian AC3 6ch 48kHz 640Kbps | Dub
Аудио #2: English AC3 6ch 48kHz 640Kbps | Original
Аудио #3: English HE-AAC 2ch ~64Kbps | Commentary
Формат субтитров: softsub (SRT)
Главы: есть

MediaInfo | x264

x264

x264 [info]: frame I:969 Avg QP:14.26 size: 91742
x264 [info]: frame P:26414 Avg QP:15.51 size: 36316
x264 [info]: frame B:103513 Avg QP:17.98 size: 11624
x264 [info]: kb/s:3299.08
General
Complete name : E:\...\The.Beaver.2011.720p.BluRay.x264.DD5.1.Rus.Eng-CtrlHD.mkv
Format : Matroska
Format version : Version 2
File size : 2.94 GiB
Duration : 1h 30mn
Overall bit rate : 4 628 Kbps
Movie name : The.Beaver.2011.720p.BluRay.x264.DD5.1.Rus.Eng-CtrlHD
Encoded date : UTC 2014-01-28 08:08:46
Writing application : mkvmerge v6.5.0 ('Isn't she lovely') built on Oct 20 2013 12:50:05
Writing library : libebml v1.3.0 + libmatroska v1.4.1
Video
ID : 1
Format : AVC
Format/Info : Advanced Video Codec
Format profile : High@L4.1
Format settings, CABAC : Yes
Format settings, ReFrames : 9 frames
Codec ID : V_MPEG4/ISO/AVC
Duration : 1h 30mn
Nominal bit rate : 3 300 Kbps
Width : 1 280 pixels
Height : 534 pixels
Display aspect ratio : 2.40:1
Frame rate mode : Constant
Frame rate : 23.976 fps
Color space : YUV
Chroma subsampling : 4:2:0
Bit depth : 8 bits
Scan type : Progressive
Bits/(Pixel*Frame) : 0.201
Title : The Beaver (2011)
Writing library : x264 core 116 r2037 f8ebd4a
Encoding settings : cabac=1 / ref=9 / deblock=1:-3:-3 / analyse=0x3:0x133 / me=umh / subme=10 / psy=1 / psy_rd=1.00:0.00 / mixed_ref=1 / me_range=48 / chroma_me=1 / trellis=2 / 8x8dct=1 / cqm=0 / deadzone=21,11 / fast_pskip=0 / chroma_qp_offset=-2 / threads=12 / sliced_threads=0 / nr=0 / decimate=1 / interlaced=0 / bluray_compat=0 / constrained_intra=0 / bframes=8 / b_pyramid=2 / b_adapt=2 / b_bias=0 / direct=3 / weightb=1 / open_gop=0 / weightp=2 / keyint=250 / keyint_min=23 / scenecut=40 / intra_refresh=0 / rc_lookahead=60 / rc=2pass / mbtree=1 / bitrate=3300 / ratetol=1.0 / qcomp=0.70 / qpmin=0 / qpmax=69 / qpstep=4 / cplxblur=20.0 / qblur=0.5 / vbv_maxrate=40000 / vbv_bufsize=30000 / nal_hrd=none / ip_ratio=1.40 / aq=1:0.80
Language : English
Default : Yes
Forced : No
Audio #1
ID : 2
Format : AC-3
Format/Info : Audio Coding 3
Mode extension : CM (complete main)
Format settings, Endianness : Big
Codec ID : A_AC3
Duration : 1h 30mn
Bit rate mode : Constant
Bit rate : 640 Kbps
Channel(s) : 6 channels
Channel positions : Front: L C R, Side: L R, LFE
Sampling rate : 48.0 KHz
Bit depth : 16 bits
Compression mode : Lossy
Stream size : 417 MiB (14%)
Title : Dub
Language : Russian
Default : Yes
Forced : No
Audio #2
ID : 3
Format : AC-3
Format/Info : Audio Coding 3
Mode extension : CM (complete main)
Format settings, Endianness : Big
Codec ID : A_AC3
Duration : 1h 30mn
Bit rate mode : Constant
Bit rate : 640 Kbps
Channel(s) : 6 channels
Channel positions : Front: L C R, Side: L R, LFE
Sampling rate : 48.0 KHz
Bit depth : 16 bits
Compression mode : Lossy
Stream size : 417 MiB (14%)
Title : Original
Language : English
Default : No
Forced : No
Audio #3
ID : 4
Format : AAC
Format/Info : Advanced Audio Codec
Format profile : HE-AAC / LC
Codec ID : A_AAC
Duration : 1h 30mn
Channel(s) : 2 channels
Channel positions : Front: L R
Sampling rate : 48.0 KHz / 24.0 KHz
Compression mode : Lossy
Title : Commentary
Language : English
Default : No
Forced : No
Text #1
ID : 5
Format : UTF-8
Codec ID : S_TEXT/UTF8
Codec ID/Info : UTF-8 Plain Text
Title : voronine
Language : Russian
Default : No
Forced : No
Text #2
ID : 6
Format : UTF-8
Codec ID : S_TEXT/UTF8
Codec ID/Info : UTF-8 Plain Text
Title : voronine SDH
Language : Russian
Default : No
Forced : No
Text #3
ID : 7
Format : UTF-8
Codec ID : S_TEXT/UTF8
Codec ID/Info : UTF-8 Plain Text
Title : BD
Language : Russian
Default : No
Forced : No
Text #4
ID : 8
Format : UTF-8
Codec ID : S_TEXT/UTF8
Codec ID/Info : UTF-8 Plain Text
Language : English
Default : No
Forced : No
Text #5
ID : 9
Format : UTF-8
Codec ID : S_TEXT/UTF8
Codec ID/Info : UTF-8 Plain Text
Title : SDH
Language : English
Default : No
Forced : No
Menu
00:00:00.000 : en:00:00:00.000
00:06:52.996 : en:00:06:52.996
00:11:37.906 : en:00:11:37.906
00:14:41.339 : en:00:14:41.339
00:19:56.737 : en:00:19:56.737
00:24:18.749 : en:00:24:18.749
00:30:56.730 : en:00:30:56.730
00:33:28.506 : en:00:33:28.506
00:40:03.443 : en:00:40:03.443
00:48:19.355 : en:00:48:19.355
00:51:13.028 : en:00:51:13.028
00:55:32.496 : en:00:55:32.496
01:00:51.815 : en:01:00:51.815
01:05:29.259 : en:01:05:29.259
01:09:03.806 : en:01:09:03.806
01:12:11.118 : en:01:12:11.118
01:16:51.774 : en:01:16:51.774
01:22:04.378 : en:01:22:04.378

Скриншоты




source vs CtrlHD


* Рип пристойный, лог и сравнения прилагаются

_________________
Показать сообщения:    

Текущее время: Сегодня 02:26

Часовой пояс: GMT



Вы не можете начинать темы
Вы не можете отвечать на сообщения
Вы не можете редактировать свои сообщения
Вы не можете удалять свои сообщения
Вы не можете голосовать в опросах
Вы не можете прикреплять файлы к сообщениям
Вы не можете скачивать файлы