Важное объявление!
У Нас Все раздачи мультитрекерные, при нуле пиров в релизах, можете смело вставать на закачку!
 
Автор Сообщение

HUNTER

Стаж:
4 года 4 месяца
Сообщений:
56842

Репутация: 101

[+] [-]
Вне форума [Профиль] [ЛС]

Бобер / The Beaver
Страна: США, ОАЭ
Жанр: драма
Год выпуска: 2011
Продолжительность: 01:31:01
Перевод: Профессиональный (дублированный) | R5
Cубтитры: русские (BD, voronine), английские
Оригинальная аудиодорожка: английский
Режиссер: Джоди Фостер / Jodie Foster
В ролях: Мэл Гибсон, Джоди Фостер, Черри Джонс, Антон Ельчин, Райли Стюарт, Захари Бут, Дженнифер Лоуренс, Джефф Корбетт, Бэйлен Томас, Сэм Бреслин Райт
Описание: Уолтер Блэк — успешный бизнесмен, счастливый муж и отец. Одно несчастье — депрессия отравляет все его существование. Полноту и радость жизни Уолтеру возвращает… кукла бобер. Надев ее на руку, Уолтер обретает второе дыхание. Говорящий бобер восстанавливает мир в его отношениях с женой, делает Уолтера кумиром детей и даже берет на себя управление компанией...

Доп. информация: дубляж заново перетянут с русского блюра, спасибо HDCLUB
Тип релиза: BDRip 1080p (от HDMaNiAcS) | sample
Контейнер: MKV
Видео кодек: x264
Видео: AVC 1920x800 (2.40:1), 23.976 fps, ~11 Mbps, 0.30 bit/pixel
Аудио #1: Russian DTS 6ch 48kHz 1510Kbps | Dub
Аудио #2: English DTS 6ch 48kHz 1510Kbps | Original
Аудио #3: English AC3 2ch ~192Kbps | Commentary
Формат субтитров: softsub (SRT)
Главы: есть

MediaInfo

General
Complete name : E:\...\The.Beaver.2011.1080p.BluRay.DTS.x264.Rus.Eng-HDMaNiAcS.mkv
Format : Matroska
Format version : Version 2
File size : 9.03 GiB
Duration : 1h 30mn
Overall bit rate : 14.2 Mbps
Movie name : The.Beaver.2011.1080p.BluRay.DTS.x264.Rus.Eng-HDMaNiAcS
Encoded date : UTC 2014-01-24 08:51:31
Writing application : mkvmerge v6.5.0 ('Isn't she lovely') built on Oct 20 2013 12:50:05
Writing library : libebml v1.3.0 + libmatroska v1.4.1
Video
ID : 1
Format : AVC
Format/Info : Advanced Video Codec
Format profile : High@L4.1
Format settings, CABAC : Yes
Format settings, ReFrames : 4 frames
Codec ID : V_MPEG4/ISO/AVC
Duration : 1h 30mn
Bit rate : 11.0 Mbps
Width : 1 920 pixels
Height : 800 pixels
Display aspect ratio : 2.40:1
Frame rate mode : Constant
Frame rate : 23.976 fps
Color space : YUV
Chroma subsampling : 4:2:0
Bit depth : 8 bits
Scan type : Progressive
Bits/(Pixel*Frame) : 0.299
Stream size : 6.81 GiB (75%)
Title : The Beaver (2011)
Writing library : x264 core 116 r2057 0ba8a9c
Encoding settings : cabac=1 / ref=5 / deblock=1:-3:-3 / analyse=0x3:0x133 / me=umh / subme=10 / psy=1 / psy_rd=1.00:0.00 / mixed_ref=1 / me_range=48 / chroma_me=1 / trellis=2 / 8x8dct=1 / cqm=0 / deadzone=21,11 / fast_pskip=0 / chroma_qp_offset=-2 / threads=3 / sliced_threads=0 / nr=0 / decimate=1 / interlaced=0 / bluray_compat=0 / constrained_intra=0 / bframes=3 / b_pyramid=1 / b_adapt=2 / b_bias=0 / direct=3 / weightb=1 / open_gop=0 / weightp=2 / keyint=250 / keyint_min=23 / scenecut=40 / intra_refresh=0 / rc_lookahead=40 / rc=2pass / mbtree=1 / bitrate=11002 / ratetol=1.0 / qcomp=0.60 / qpmin=0 / qpmax=69 / qpstep=4 / cplxblur=20.0 / qblur=0.5 / ip_ratio=1.40 / aq=1:1.00
Language : English
Default : Yes
Forced : No
Audio #1
ID : 2
Format : DTS
Format/Info : Digital Theater Systems
Codec ID : A_DTS
Duration : 1h 30mn
Bit rate mode : Constant
Bit rate : 1 510 Kbps
Channel(s) : 6 channels
Channel positions : Front: L C R, Side: L R, LFE
Sampling rate : 48.0 KHz
Bit depth : 24 bits
Compression mode : Lossy
Stream size : 983 MiB (11%)
Title : Dub BD
Language : Russian
Default : Yes
Forced : No
Audio #2
ID : 3
Format : DTS
Format/Info : Digital Theater Systems
Codec ID : A_DTS
Duration : 1h 30mn
Bit rate mode : Constant
Bit rate : 1 510 Kbps
Channel(s) : 6 channels
Channel positions : Front: L C R, Side: L R, LFE
Sampling rate : 48.0 KHz
Bit depth : 24 bits
Compression mode : Lossy
Stream size : 983 MiB (11%)
Title : Original
Language : English
Default : No
Forced : No
Audio #3
ID : 4
Format : AC-3
Format/Info : Audio Coding 3
Format profile : Dolby Digital
Mode extension : CM (complete main)
Format settings, Endianness : Big
Codec ID : A_AC3
Duration : 1h 30mn
Bit rate mode : Constant
Bit rate : 192 Kbps
Channel(s) : 2 channels
Channel positions : Front: L R
Sampling rate : 48.0 KHz
Bit depth : 16 bits
Compression mode : Lossy
Stream size : 125 MiB (1%)
Title : Commentary
Language : English
Default : No
Forced : No
Text #1
ID : 5
Format : UTF-8
Codec ID : S_TEXT/UTF8
Codec ID/Info : UTF-8 Plain Text
Title : voronine
Language : Russian
Default : No
Forced : No
Text #2
ID : 6
Format : UTF-8
Codec ID : S_TEXT/UTF8
Codec ID/Info : UTF-8 Plain Text
Title : voronine SDH
Language : Russian
Default : No
Forced : No
Text #3
ID : 7
Format : UTF-8
Codec ID : S_TEXT/UTF8
Codec ID/Info : UTF-8 Plain Text
Title : BD
Language : Russian
Default : No
Forced : No
Text #4
ID : 8
Format : UTF-8
Codec ID : S_TEXT/UTF8
Codec ID/Info : UTF-8 Plain Text
Language : English
Default : No
Forced : No
Text #5
ID : 9
Format : UTF-8
Codec ID : S_TEXT/UTF8
Codec ID/Info : UTF-8 Plain Text
Title : SDH
Language : English
Default : No
Forced : No
Menu
00:00:00.000 : en:00:00:00.000
00:06:52.996 : en:00:06:52.996
00:11:37.906 : en:00:11:37.906
00:14:41.339 : en:00:14:41.339
00:19:56.737 : en:00:19:56.737
00:24:18.749 : en:00:24:18.749
00:30:56.730 : en:00:30:56.730
00:33:28.506 : en:00:33:28.506
00:40:03.443 : en:00:40:03.443
00:48:19.355 : en:00:48:19.355
00:51:13.028 : en:00:51:13.028
00:55:32.496 : en:00:55:32.496
01:00:51.815 : en:01:00:51.815
01:05:29.259 : en:01:05:29.259
01:09:03.806 : en:01:09:03.806
01:12:11.118 : en:01:12:11.118
01:16:51.774 : en:01:16:51.774
01:22:04.378 : en:01:22:04.378

Скриншоты



* На замену этому
Год - везде 2011 указывают

_________________
Показать сообщения:    

Текущее время: Сегодня 19:39

Часовой пояс: GMT



Вы не можете начинать темы
Вы не можете отвечать на сообщения
Вы не можете редактировать свои сообщения
Вы не можете удалять свои сообщения
Вы не можете голосовать в опросах
Вы не можете прикреплять файлы к сообщениям
Вы не можете скачивать файлы
Наши партнеры: интернет магазин Ивановского трикотажа textilla.ru