Важное объявление!
У Нас Все раздачи мультитрекерные, при нуле пиров в релизах, можете смело вставать на закачку!
 
Автор Сообщение

HUNTER

Стаж:
4 года 4 месяца
Сообщений:
56722

Репутация: 101

[+] [-]
Вне форума [Профиль] [ЛС]

Блондинка в законе / Legally Blonde-
Год выпуска: 2001
Выпущено: США
Жанр: мелодрама, комедия
Продолжительность: 01:36:01
Перевод: Профессиональный (двухголосый, закадровый) Blu-ray EUR/НТВ+
+ Профессиональный (двухголосый, закадровый) Гемини/VHS
+ Профессиональный (двухголосый, закадровый) МедиаКомплекс
+ Профессиональный (многоголосый, закадровый) DDV
+ Авторский одноголосый Ю.Живов
Оригинальная звуковая дорожка: English
Субтитры: Russian, English-Режиссер: Роберт Лукетич / Robert Luketic
В ролях: Риз Уизерспун, Люк Уилсон, Сэльма Блэр, Мэттью Дэвис, Виктор Гарбер, Дженнифер Кулидж, Холланд Тейлор, Эли Лартер, Джессика Коффил, Аланна Юбак
О фильме: У Эль Вудс кажется, есть все, что может пожелать современная девушка. Она – красавица, президент университетского женского клуба, носит звание «Мисс Июнь» но главное, она - натуральная блондинка. Ее бойфрэнд - лучший парень университета и единственное о чем она мечтает, это - стать миссис Уорнер Хантингтон III.
Но оказывается, Уорнер считает Эль слишком ветреной девушкой, и вместо долгожданного предложения руки и сердца он открывает Эль свои коварные планы, поступить в Гарвард на юридический факультет и жениться на умной интеллигентной девушке. Проведя пару недель в истерике и съев несколько кг. шоколадных конфет, Эль отправляется в Гарвард возвращать своего ненаглядного.
Своей любовью к эпатажу и розовому белью, она взбудоражила все почтенное население Гарварда, покачнув самые основы древнего университета. То как она это делает и чем это закончится, нужно видеть.
SbR!
Релиз: by Skazhutin
Формат: MKV
Видео: 1280x544 at 23.976 fps, x264@L4.1, crf, ~7455 kbps avg
Аудио #01: Russian: 48 kHz, DTS, 3/2 (L,C,R,l,r) + LFE ch, ~768 kbps avg |Двухголосый закадровый, Blu-ray EUR/НТВ+|
Аудио #02: Russian: 48 kHz, AC3, 2/0 (L,R) ch, ~192 kbps avg |Дубляж, Гемини/VHS|
Аудио #03: Russian: 48 kHz, AC3, 3/2 (L,C,R,l,r) + LFE ch, ~448 kbps avg |Двухголосый закадровый, МедиаКомплекс|
Аудио #04: Russian: 48 kHz, AC3, 3/2 (L,C,R,l,r) + LFE ch, ~384 kbps avg |Многоголосый закадровый, DDV|
Аудио #05: Russian: 48 kHz, AC3, 2/0 (L,R) ch, ~192 kbps avg |Одноголосый закадровый, Ю. Живов|
Аудио #06: English: 48 kHz, DTS, 3/2 (L,C,R,l,r) + LFE ch, ~1509 kbps avg
Семпл-

Source vs Encode






-

mInfo

Формат : Matroska
Версия формата : Version 4 / Version 2
Размер файла : 7,35 Гбайт
Продолжительность : 1 ч. 36 м.
Общий поток : 11,0 Мбит/сек
Название фильма : Legally Blonde (2001) - Release for HDCLUB by SbR
Дата кодирования : UTC 2014-07-27 14:07:34
Программа кодирования : mkvmerge v6.1.0 ('Old Devil') built on Mar 2 2013 14:32:37
Библиотека кодирования : libebml v1.3.0 + libmatroska v1.4.0
Attachment : Yes / Yes
Видео
Идентификатор : 1
Формат : AVC
Формат/Информация : Advanced Video Codec
Профиль формата : High@L4.1
Параметр CABAC формата : Да
Параметр ReFrames формата : 12 кадров
Идентификатор кодека : V_MPEG4/ISO/AVC
Продолжительность : 1 ч. 36 м.
Битрейт : 7242 Кбит/сек
Ширина : 1280 пикселей
Высота : 544 пикселя
Соотношение сторон : 2,35:1
Режим частоты кадров : Постоянный
Частота кадров : 23,976 кадра/сек
Цветовое пространство : YUV
Субдискретизация насыщенности : 4:2:0
Битовая глубина : 8 бит
Тип развёртки : Прогрессивная
Бит/(Пиксели*Кадры) : 0.434
Размер потока : 4,86 Гбайт (66%)
Заголовок : Release for HDCLUB
Библиотека кодирования : x264 core 142 r2431+42 c69a006 tMod [8-bit@4:2:0 X86_64]
Настройки программы : cabac=1 / ref=12 / deblock=1:-2:-2 / analyse=0x3:0x133 / me=umh / subme=11 / psy=1 / fade_compensate=0.00 / psy_rd=1.00:0.00 / mixed_ref=1 / me_range=32 / chroma_me=1 / trellis=2 / 8x8dct=1 / cqm=0 / deadzone=21,11 / fast_pskip=1 / chroma_qp_offset=-2 / threads=12 / lookahead_threads=3 / sliced_threads=0 / nr=0 / decimate=1 / interlaced=0 / bluray_compat=0 / constrained_intra=0 / fgo=0 / bframes=11 / b_pyramid=2 / b_adapt=2 / b_bias=0 / direct=1 / weightb=1 / open_gop=0 / weightp=2 / keyint=250 / keyint_min=23 / scenecut=40 / intra_refresh=0 / rc_lookahead=60 / rc=crf / mbtree=0 / crf=18.0000 / qcomp=0.70 / qpmin=0:0:0 / qpmax=69:69:69 / qpstep=4 / vbv_maxrate=62500 / vbv_bufsize=78125 / crf_max=0.0 / nal_hrd=none / filler=0 / ip_ratio=1.40 / pb_ratio=1.30 / aq=4:0.80 / aq-sensitivity=11.00 / aq-factor=1.00:1.00:1.00 / aq2=1:0.60 / aq2-sensitivity=9.00 / aq2-factor=1.00:1.00:1.00 / aq3=1:[0.60:0.60]:[0.60:0.60]:[0.60:0.60]:[0.60:0.60] / aq3-sensitivity=10.00 / aq3-factor=[1.00:1.00]:[1.00:1.00]:[1.00:1.00] / aq3-boundary=192:64:24
Язык : English
Default : Да
Forced : Нет
Основные цвета : BT.709
Характеристики трансфера : BT.709
Коэффициенты матрицы : BT.709
Аудио #1
Идентификатор : 2
Формат : DTS
Формат/Информация : Digital Theater Systems
Режим : 16
Параметр Endianness формата : Big
Идентификатор кодека : A_DTS
Продолжительность : 1 ч. 36 м.
Вид битрейта : Постоянный
Битрейт : 768 Кбит/сек
Каналы : 6 каналов
Расположение каналов : Front: L C R, Side: L R, LFE
Частота : 48,0 КГц
Битовая глубина : 24 бит
Метод сжатия : С потерями
Размер потока : 527 Мбайт (7%)
Заголовок : DVO, Blu-ray EUR, НТВ+
Язык : Russian
Default : Да
Forced : Нет
Аудио #2
Идентификатор : 3
Формат : AC-3
Формат/Информация : Audio Coding 3
Расширение режима : CM (complete main)
Параметр Endianness формата : Big
Идентификатор кодека : A_AC3
Продолжительность : 1 ч. 36 м.
Вид битрейта : Постоянный
Битрейт : 192 Кбит/сек
Каналы : 2 канала
Расположение каналов : Front: L R
Частота : 48,0 КГц
Битовая глубина : 16 бит
Метод сжатия : С потерями
Размер потока : 132 Мбайт (2%)
Заголовок : DVO, Гемини/VHS
Язык : Russian
Default : Нет
Forced : Нет
Аудио #3
Идентификатор : 4
Формат : AC-3
Формат/Информация : Audio Coding 3
Расширение режима : CM (complete main)
Параметр Endianness формата : Big
Идентификатор кодека : A_AC3
Продолжительность : 1 ч. 36 м.
Вид битрейта : Постоянный
Битрейт : 448 Кбит/сек
Каналы : 6 каналов
Расположение каналов : Front: L C R, Side: L R, LFE
Частота : 48,0 КГц
Битовая глубина : 16 бит
Метод сжатия : С потерями
Размер потока : 308 Мбайт (4%)
Заголовок : DVO, МедиаКомплекс
Язык : Russian
Default : Нет
Forced : Нет
Аудио #4
Идентификатор : 5
Формат : AC-3
Формат/Информация : Audio Coding 3
Расширение режима : CM (complete main)
Параметр Endianness формата : Big
Идентификатор кодека : A_AC3
Продолжительность : 1 ч. 36 м.
Вид битрейта : Постоянный
Битрейт : 384 Кбит/сек
Каналы : 6 каналов
Расположение каналов : Front: L C R, Side: L R, LFE
Частота : 48,0 КГц
Битовая глубина : 16 бит
Метод сжатия : С потерями
Размер потока : 264 Мбайт (4%)
Заголовок : MVO, DDV
Язык : Russian
Default : Нет
Forced : Нет
Аудио #5
Идентификатор : 6
Формат : AC-3
Формат/Информация : Audio Coding 3
Расширение режима : CM (complete main)
Параметр Endianness формата : Big
Идентификатор кодека : A_AC3
Продолжительность : 1 ч. 36 м.
Вид битрейта : Постоянный
Битрейт : 192 Кбит/сек
Каналы : 2 канала
Расположение каналов : Front: L R
Частота : 48,0 КГц
Битовая глубина : 16 бит
Метод сжатия : С потерями
Размер потока : 132 Мбайт (2%)
Заголовок : AVO, Живов
Язык : Russian
Default : Нет
Forced : Нет
Аудио #6
Идентификатор : 7
Формат : DTS
Формат/Информация : Digital Theater Systems
Режим : 16
Параметр Endianness формата : Big
Идентификатор кодека : A_DTS
Продолжительность : 1 ч. 36 м.
Вид битрейта : Постоянный
Битрейт : 1509 Кбит/сек
Каналы : 6 каналов
Расположение каналов : Front: L C R, Side: L R, LFE
Частота : 48,0 КГц
Битовая глубина : 24 бит
Метод сжатия : С потерями
Размер потока : 1,01 Гбайт (14%)
Язык : English
Default : Нет
Forced : Нет
Текст #1
Идентификатор : 8
Формат : UTF-8
Идентификатор кодека : S_TEXT/UTF8
Идентификатор кодека/Информация : UTF-8 Plain Text
Язык : Russian
Default : Нет
Forced : Нет
Текст #2
Идентификатор : 9
Формат : UTF-8
Идентификатор кодека : S_TEXT/UTF8
Идентификатор кодека/Информация : UTF-8 Plain Text
Язык : English
Default : Нет
Forced : Нет
Меню
00:00:00.000 : en:Main Title/Perfect Day
00:03:37.092 : en:Dressing for Success
00:05:15.649 : en:A New Future Is Born
00:10:57.448 : en:Staving Off Depression
00:13:17.130 : en:"I'm Going to Harvard!"
00:16:10.720 : en:Video Essay & Exam
00:18:40.202 : en:Not Your Average Entry
00:21:30.498 : en:A Fish Out of Water
00:23:44.757 : en:Unreasonable Professor
00:28:51.563 : en:Finally Someone Nice
00:31:41.983 : en:Beauty Tips
00:35:03.727 : en:No Blondes Allowed
00:38:11.164 : en:Homesick
00:40:08.740 : en:The Party's Over
00:42:41.726 : en:"Taking Full Control"
00:44:39.635 : en:Winning Her 1St Case
00:47:20.546 : en:Intern Potential
00:51:06.146 : en:Happy People Don't Kill
00:53:13.857 : en:"I Didn't Do It!"
00:54:37.524 : en:"Bend & Snap!"
00:57:46.463 : en:"We Need an Alibi!"
01:01:55.462 : en:Uncovering Evidence
01:04:28.573 : en:A Winning Performance
01:05:32.929 : en:A Bonding Experience
01:07:28.670 : en:Trial & Error
01:13:10.595 : en:Poor Judgment
01:15:59.597 : en:"I'm Quitting!"
01:18:41.300 : en:"New Representation"
01:21:58.330 : en:"True Confession"
01:27:09.391 : en:Triumphant Blondes
01:28:36.978 : en:Graduation Day
01:31:57.929 : en:End Credits

-
Цитата:
Цитата:

* За синхронизацию звуковой дорожки #1 спасибо Elheym.
* Спасибо Тарантиныч за дорожки #2-#5.

_________________
Показать сообщения:    

Текущее время: Сегодня 15:10

Часовой пояс: GMT



Вы не можете начинать темы
Вы не можете отвечать на сообщения
Вы не можете редактировать свои сообщения
Вы не можете удалять свои сообщения
Вы не можете голосовать в опросах
Вы не можете прикреплять файлы к сообщениям
Вы не можете скачивать файлы