Важное объявление!
У Нас Все раздачи мультитрекерные, при нуле пиров в релизах, можете смело вставать на закачку!
 
Автор Сообщение

Savaris

Стаж:
5 лет 9 месяцев
Сообщений:
156

Репутация: 40

[+] [-]
Вне форума [Профиль] [ЛС]

-
Год выпуска: 2004
Страна: Япония
Жанр: приключения, комедия, фэнтези, сёнэн
Продолжительность: 23 мин.-Перевод: полное дублирование Мега-Аниме
Субтитры: Русские (Внешние) Arcane (1-42), yuki (43+)-
Режиссер: Абэ Нориюки
Снято по манге: Bleach
Автор оригинала: Кубо Тайто-Описание:
Куросаки Ичиго — не простой пятнадцатилетний парень, потому как, сколько он себя помнил, всегда мог запросто общаться с духами и призраками, невидимыми для обычных людей. В один судьбоносный день ему является сама синигами (богиня смерти) Кучики Рукиа, охотящаяся за Пустым (злым духом, пожирающим души людей). Во время битвы с этим чудовищем Ичиго и Рукиа получили серьёзные ранения, и богине пришлось передать парню свои силы, чтобы помочь ему одержать победу над монстром, в результате чего Ичиго сам стал синигами! Но сделав это, Рукиа теряет всю свою мощь, и теперь ожидает, что новоявленный синигами продолжит её миссию по отлову и уничтожению Пустых. Так начинаются увлекательные приключения Ичиго и Рукии.
-

Список серий

Сезон 1. Временный синигами

1. День, когда я стал синигами
2. Работа для синигами
3. Желание брата, желание сестры
4. Проклятый попугай
5. Победи невидимого врага!
6. Битва! Ичиго против Ичиго
7. Привет от мягкой игрушки
8. 17 июня, воспоминания под дождём
9. Непобедимый враг
10. Путешествие-вторжение на праздные земли духов
11. Легендарный квинси
12. Добрая правая рука
13. Цветок и пустой
14. Смертельная схватка спиной к спине!
15. Великий план Кона
16. Встречайте: Абарай Рэндзи!
17. Ичиго умирает!
18. Вернуть утраченное! Силы синигами
19. Ичиго становится пустым!
20. Тень Гина Итимару

Сезон 2. Общество душ: Проникновение

21. Вторжение! Мир синигами
22. Человек, ненавидевший синигами
23. За 14 дней до казни Рукии
24. Созыв! Готэй 13
25. Проникнуть в центр с помощью огромной бомбы?
26. Формирование! Неудачная встреча
27. Высвободи смертельный удар!
28. Цель — Орихиме
29. Прорыв! В окружении синигами
30. Столкновение с Рэндзи
31. Готовность к убийству
32. Звезды и одиночество
33. Чудо! Загадочный новый герой (филлер)
34. Трагедия на рассвете
35. Айдзэн убит! Нарастающая тьма
36. Дзараки Кэмпати приближается!
37. Причина для сражения
38. Отчаяние! Сломанный Дзангэцу
39. Бессмертный
40. Синигами, которого встретил Гандзю
41. Воссоединение, Ичиго и Рукия

Сезон 3. Общество душ: Спасение

42. Ёруити, богиня скорости, танцует!
43. Презренный синигами
44. Предельная мощь Исиды!
45. Превосходя предел!
46. Настоящие рекорды! Школа синигами
47. Мстители
48. Крик Хицугаи!
49. Кошмар Рукии
50. Воскрешающий лев (филлер)
51. Утро казни
52. Рэндзи, клятва души! Смертельная схватка с Бякуей
53. Искушение Гина Итимару, пошатнувшаяся решимость
54. Исполненная клятва! Возвращение Рукии!
55. Сильнейший синигами! Последнее сражение между учителем и учениками
56. Сверхзвуковая битва! Богиня войн принимает решение
57. Сэмбондзакура, сокрушена! Дзангэцу прорывается сквозь небеса
58. Барьеры убраны! Чёрный клинок, невероятная сила
59. Окончание смертельной схватки! Белоснежная гордость и чёрное желание
60. Безнадёжная реальность, кинжал убийцы повернулся
61. Айдзэн восстал! Кошмарные амбиции
62. Собираемся! Группа сильнейших синигами!
63. Решение Рукии, чувства Ичиго (филлер)

Сезон 4. Баунто (филлер)

64. Снова в школу, Рэндзи появился в реальном мире?!
65. Надвигающийся ужас, вторая жертва
66. Напролом! Спрятанная в лабиринте ловушка
67. Смертельная игра! Пропавший одноклассник
68. Истинное лицо дьявола, раскрытый секрет
69. Баунто! Те, кто охотятся за душами
70. Рукия вернулась! Возрождение команды Временного Синигами!
71. Момент столкновения! Зло протягивает руки к квинси
72. Водная атака! Побег из осаждённой клиники
73. Собрание у Места Судьбы! Человек, что начал действовать
74. Воспоминания вечноживущего клана
75. Потрясение в 11 отряде! Воскресший синигами
76. Сокрушительная сила! Фуридо против Дзангэцу
77. Неослабевающая злоба! Синигами, убитый Кэмпати
78. Шокирующее открытие Готэй 13! Истина, похороненная в истории
79. Ёсино, желание умереть
80. Нападение могучего врага! Последняя тоненькая линия защиты?!
81. Хицугая действует! Атакованный город
82. Ичиго против Дарк! Появление ослабевшей тьмы
83. Пепельная тень, секрет кукол
84. Раскол команды Временного Синигами? Предательство Рукии
85. Печальная смертельная схватка! Рукия против Орихиме
86. Рангику танцует! Пронзи невидимого врага!
87. Бякуя вызван! Готэй 13 начинает действовать!
88. Истребление лейтенантов?! Ловушка в подземной пещере
89. Матч-реванш?! Исида против Нэму
90. Абарай Рэндзи, банкай души!
91. Синигами и квинси, оживляющая сила

Сезон 5. Нападение баунто на Сообщество душ (филлер)

92. Вторжение в мир синигами, ещё раз
93. Нападение баунто! Готэй 13 - страшное землетрясение
94. Решение Хицугаи! Конфликт нарастает
95. Бякуя вступает в бой! Танец рвущих ветер лепестков сакуры
96. Ичиго - Бякуя - Кария, битва трех гигантов!
97. Удар Хицугаи! Порази врага посреди леса
98. Столкновение! Дзараки Кэмпати против Итиносэ Маки
99. Синигами против синигами! Неконтролируемая сила
100. Сой Фон умирает? Конец Отряда Тайных Операций
101. Банкай Маюри!! Саватари - Появление демона
102. Последний квинси! Разрушающая сила
103. Исида, шагни через предел и нанеси удар!
104. 10 отряд сражается до смерти! Высвобождение Хёриммару
105. Кария! Обратный отсчет до взрыва
106. Жизнь и месть! Исида, окончательный выбор
107. Падающий клинок! Миг разрушения
108. Плач баунто! Последний бой
109. Ичиго и Рукия, размышления в круговороте небес

Над релизом работали

Риперы 2x2
TRAY_MAX (1-4), KingMaster (5-39, 66), axsel146 (отдельные серии из 20-39), HouseMDX (40-63), ALEKS KV (64-65, 67+), PaFos-DJ (79, 84, 85 99)
Работа над звуком
KingMaster (1-74, 77, 79, 81, 84-85, 99), ALEKS KV (75-109)
Монтаж видео
KingMaster

Подробные тех. данные

1-63 серии...
Качество: DVDRip (яп.)
Формат: AVI
Видео кодек: XviD
Аудио кодек: MP3
Видео: XviD, 720x540, ~1300 Kbps, 23.976 fps
Аудио 1: Russian, MP3, 48000 Hz, stereo, 192 kbps (Дубляж)
Аудио 2: Japanese, MP3, 48000 Hz, stereo, 192 kbps (Оригинал)

MI

GeneralComplete name : F:\ANIME\Блич (Мега-Аниме)\Bleach - 050.aviFormat : AVIFormat/Info : Audio Video InterleaveFormat profile : OpenDMLFormat settings : recFile size : 281 MiBDuration : 22mn 50sOverall bit rate : 1 718 KbpsWriting application : AVI-Mux GUI 1.17.8, Aug 30 2008 12:36:58
VideoID : 0Format : MPEG-4 VisualFormat profile : Advanced Simple@L5Format settings, BVOP : 2Format settings, QPel : NoFormat settings, GMC : No warppointsFormat settings, Matrix : Default (H.263)Codec ID : XVIDCodec ID/Hint : XviDDuration : 22mn 50sBit rate : 1 330 KbpsWidth : 720 pixelsHeight : 540 pixelsDisplay aspect ratio : 4:3Frame rate : 23.976 fpsColor space : YUVChroma subsampling : 4:2:0Bit depth : 8 bitsScan type : ProgressiveCompression mode : LossyBits/(Pixel*Frame) : 0.143Stream size : 217 MiB (77%)Writing library : XviD 1.2.1 (UTC 2008-12-04)
Audio #1ID : 1Format : MPEG AudioFormat version : Version 1Format profile : Layer 3Mode : Joint stereoCodec ID : 55Codec ID/Hint : MP3Duration : 22mn 50sBit rate mode : ConstantBit rate : 192 KbpsChannel(s) : 2 channelsSampling rate : 48.0 KHzCompression mode : LossyStream size : 31.4 MiB (11%)Alignment : Aligned on interleavesInterleave, duration : 515 ms (12.36 video frames)Interleave, preload duration : 216 msTitle : 50rus
Audio #2ID : 2Format : MPEG AudioFormat version : Version 1Format profile : Layer 3Mode : Joint stereoCodec ID : 55Codec ID/Hint : MP3Duration : 22mn 49sBit rate mode : ConstantBit rate : 192 KbpsChannel(s) : 2 channelsSampling rate : 48.0 KHzCompression mode : LossyStream size : 31.4 MiB (11%)Alignment : Aligned on interleavesInterleave, duration : 515 ms (12.36 video frames)Interleave, preload duration : 216 msTitle : 50 Bleach
64-79 серии...
Качество: DVDRip (яп.)
Формат: AVI
Видео кодек: XviD
Аудио кодек: MP3
Видео: XviD, 720x540, ~1300 Kbps, 23.976 fps
Аудио 1: Russian, MP3, 48000 Hz, stereo, 192 kbps (Дубляж)
Аудио 2: Japanese, MP3, 48000 Hz, stereo, 160 kbps (Оригинал)

MI

GeneralComplete name : F:\ANIME\Блич (Мега-Аниме)\Bleach - 074.aviFormat : AVIFormat/Info : Audio Video InterleaveFile size : 240 MiBDuration : 24mn 32sOverall bit rate : 1 367 KbpsWriting application : VirtualDubMod 1.5.10.2 (build 2542/release)Writing library : VirtualDubMod build 2542/release
VideoID : 0Format : MPEG-4 VisualFormat profile : Advanced Simple@L5Format settings, BVOP : 2Format settings, QPel : NoFormat settings, GMC : No warppointsFormat settings, Matrix : Default (H.263)Codec ID : XVIDCodec ID/Hint : XviDDuration : 24mn 32sBit rate : 1 001 KbpsWidth : 720 pixelsHeight : 540 pixelsDisplay aspect ratio : 4:3Frame rate : 23.976 fpsColor space : YUVChroma subsampling : 4:2:0Bit depth : 8 bitsScan type : ProgressiveCompression mode : LossyBits/(Pixel*Frame) : 0.107Stream size : 176 MiB (73%)Writing library : XviD 1.2.1 (UTC 2008-12-04)
Audio #1ID : 1Format : MPEG AudioFormat version : Version 1Format profile : Layer 3Mode : Joint stereoCodec ID : 55Codec ID/Hint : MP3Duration : 24mn 32sBit rate mode : ConstantBit rate : 192 KbpsChannel(s) : 2 channelsSampling rate : 48.0 KHzCompression mode : LossyStream size : 33.7 MiB (14%)Alignment : Aligned on interleavesInterleave, duration : 42 ms (1.00 video frame)Interleave, preload duration : 504 ms
Audio #2ID : 2Format : MPEG AudioFormat version : Version 1Format profile : Layer 3Mode : Joint stereoCodec ID : 55Codec ID/Hint : MP3Duration : 24mn 32sBit rate mode : ConstantBit rate : 160 KbpsChannel(s) : 2 channelsSampling rate : 48.0 KHzCompression mode : LossyStream size : 28.1 MiB (12%)Alignment : Aligned on interleavesInterleave, duration : 42 ms (1.00 video frame)Interleave, preload duration : 504 ms
80-109 серии...
Качество: DVDRip (яп.)
Формат: AVI
Видео кодек: XviD
Аудио кодек: MP3
Видео: XviD, 720x540, ~1300 Kbps, 29.970 fps
Аудио 1: Russian, MP3, 48000 Hz, stereo, 192 kbps (Дубляж)
Аудио 2: Japanese, MP3, 48000 Hz, stereo, 160 kbps (Оригинал)

MI

GeneralComplete name : F:\ANIME\Блич (Мега-Аниме)\Bleach - 107.aviFormat : AVIFormat/Info : Audio Video InterleaveFile size : 286 MiBDuration : 24mn 5sOverall bit rate : 1 661 KbpsMovie name : BLEACH 107Recorded date : 2010.10Writing application : VirtualDubMod 1.5.10.2 (build 2542/release)Writing library : VirtualDubMod build 2542/release
VideoID : 0Format : MPEG-4 VisualFormat profile : Advanced Simple@L5Format settings, BVOP : 2Format settings, QPel : NoFormat settings, GMC : No warppointsFormat settings, Matrix : Default (H.263)Codec ID : XVIDCodec ID/Hint : XviDDuration : 24mn 5sBit rate : 1 291 KbpsWidth : 720 pixelsHeight : 540 pixelsDisplay aspect ratio : 4:3Frame rate : 29.970 fpsColor space : YUVChroma subsampling : 4:2:0Bit depth : 8 bitsScan type : ProgressiveCompression mode : LossyBits/(Pixel*Frame) : 0.111Stream size : 222 MiB (78%)Writing library : XviD 1.2.1 (UTC 2008-12-04)
Audio #1ID : 1Format : AC-3Format/Info : Audio Coding 3Mode extension : CM (complete main)Codec ID : 2000Duration : 24mn 5sBit rate mode : ConstantBit rate : 192 KbpsChannel(s) : 2 channelsChannel positions : Front: L RSampling rate : 48.0 KHzBit depth : 16 bitsCompression mode : LossyStream size : 33.1 MiB (12%)Alignment : Split accross interleavesInterleave, duration : 33 ms (1.00 video frame)Interleave, preload duration : 500 ms
Audio #2ID : 2Format : MPEG AudioFormat version : Version 1Format profile : Layer 3Mode : Joint stereoCodec ID : 55Codec ID/Hint : MP3Duration : 24mn 5sBit rate mode : ConstantBit rate : 160 KbpsChannel(s) : 2 channelsSampling rate : 48.0 KHzCompression mode : LossyStream size : 27.6 MiB (10%)Alignment : Aligned on interleavesInterleave, duration : 33 ms (1.00 video frame)Interleave, preload duration : 504 ms

Внимание! Раздача ведется путем добавления новых серий!

Внимание! Раздача ведётся путём добавления новых серий; при каждом добавлении создётся новый торрент. Чтобы начать докачку новой серии, пользователям необходимо сделать следующее:
(1) остановить скачивание,
(2) удалить старый торрент у себя из клиента (старые серии удалять не надо),
(3) скачать новый торрент и запустить его у себя в клиенте вместо старого, при этом указать клиенту путь в старую папку куда и должно происходить скачивание новых серий.
Ваш клиент при этом должен произвести хеширование (проверку) старой папки (если не производит сам - помогите ему сделать это), и будет докачивать только те серии которых у вас ещё нет. Старые серии при этом не удаляются, а продолжают раздаваться!
Eсли вы уже удалили старые серии, то предотвратить повторную закачку старых серий можно, отжав галочку в соответсвующих местах при запуске нового торрента. По возможности, желательно не удалять старые серии как можно дольше чтобы релизёр не столько продолжал раздавать старые серии, а смог сконцентрироваться на новых.

В каком порядке смотреть Блич

Спец. выпуски и фильмы - порядок просмотра::
1) Блич OVA-1 - после 9 серии Блич
2) Блич OVA-2 - после 63 серии Блич
3) Блич (фильм первый) - после 63 серии Блич
4) Блич (фильм второй) - после 167 серии Блич
5) Блич (фильм третий) - после 214 серии Блич
6) Блич (фильм четвертый) - после 299 серии Блич (дата выхода в России: сентябрь 2011)

В дубляже что-нибудь вырезано? Может цензура?

Внимание! Учтите, что все вырезания могли быть сделаны каналом а не студией дубляжа (эфирное время и всё такое). Возможно на дисках всё это будет.-5 серия
11:49-11:56 - этот отрывок отсутствует в дубляже. Тут идет повторение последней фразы перед рекламой. Его просто вырезали.
Рукия писал(а):

Вот я и решила воспользоваться твоим советом.
Т. е. он фактически есть в дубляже и смысла никакого не теряется. В релизе идет с японской озвучкой.
7 серия
В версии с дубляжем в самом конце анонс на одну секунду длиннее и "залазиет" на рекламу, которой нету в DVDRip. В релизе вставлено дополнительно видео (1 секунда) черным фоном с копирайтом.
10 серия
11:23-11:31 - этот отрывок вырезали на 2x2 - рекламный блок и повторение последней сцены - слова отсутствуют. В релизе оригинальный звук на этом отрывке.
11 серия
В версии с дубляжем в самом конце анонс на одну секунду длиннее и "залазиет" на рекламу, которой нету в DVDRip. В релизе вставлено дополнительно видео (1 секунда) черным фоном с копирайтом.
14 серия
22:44-22:49 - спешл в конце не озвучен. В релизе идет с японской озвучкой.
21 серия
В самом начале после заставки вырезано секунды две видео. В японской версии это был чёрный экран и в это время бил колокол. В релизе сохранено.
27 серия
10:33-10:37 - эта сцена вырезана. В релизе идет с японской озвучкой. (Этот момент был показан по AXN Sci-Fi)

Скринлист

52 серия
В самом начале перед опенингом нет перевода вступительной речи Ичиго. В релизе оригинальный звук на этом отрывке.
63 серия
По 2х2 показали только половину серии (в оригинале серия идет 48 минут). Первые 24 минуты идут с оригинальной дорожкой - дальше дубляж.
73 серия
Не записалась концовка (спецвыпуск). В релизе оригинальный звук на этом отрывке.
74 серия
Не записалась концовка (спецвыпуск). В релизе оригинальный звук на этом отрывке.
79 серия
Не записалась концовка (анонс и спецвыпуск). В релизе оригинальный звук на этом отрывке.
109 серия
Не записалась концовка (анонс и спецвыпуск). В релизе оригинальный звук на этом отрывке.
-Альтернативная раздача-

_________________

Показать сообщения:    

Текущее время: Сегодня 17:20

Часовой пояс: GMT



Вы не можете начинать темы
Вы не можете отвечать на сообщения
Вы не можете редактировать свои сообщения
Вы не можете удалять свои сообщения
Вы не можете голосовать в опросах
Вы не можете прикреплять файлы к сообщениям
Вы не можете скачивать файлы