Важное объявление!
У Нас Все раздачи мультитрекерные, при нуле пиров в релизах, можете смело вставать на закачку!
 
Автор Сообщение

димитри37

Стаж:
3 года 9 месяцев
Сообщений:
1237

Репутация: 127

[+] [-]
Вне форума [Профиль] [ЛС]

Ближний Круг (2 серии)
Жанр: драма
Год выпуска: 1991
Продолжительность: 01:18:12 + 00:53:11
Страна: СССР
Режиссёр: Андрей Кончаловский
В ролях:
Том Халс / Tom Hulce - Иван Саньшин (озвучил Евгений Миронов)
Лолита Давидович / Lolita Davidovich - Анастасия
Боб Хоскинс / Bob Hoskins - Берия
Александр Збруев - Сталин
Фёдор Шаляпин-младший - профессор Бартнев
Ирина Купченко - директриса
Владимир Кулешов - полковник Щелкасов
Олег Табаков - генерал Власик
Всеволод Ларионов - генерал Румянцев
Александр Феклистов - Большаков
Владимир Стеклов - Хрусталёв
Александр Филиппенко - майор Хитров
Виктор Уральский - Калинин
Михаил Кононов -— Ворошилов
Виктор Балабанов - Молотов
Описание: Герой картины - восторженный и простодушный Ваня Саньшин любил жизнь, людей и жену, но более всего он любил Вождя, безраздельно правившего огромной страной. Волею судеб Саньшин попадает в ближайшее окружение Сталина и становится его личным киномехаником.

Качество видео: DVDRip-AVC
Формат видео: MKV
Видео: x264 (High@L4.1); Анаморф 716@763x572, Display aspect ratio 4:3, 25.000 fps, 2482 Kbps
Аудио 1: Оригинал AC-3; 16 bits 48 Khz; 5.1ch 448 Kbps; CBR
Аудио 2: Оригинал AC-3; 16 bits 48 Khz; 1.0ch 224 Kbps; CBR

MediaInfo

1 серия

x264 log

x264.exe: --pass 2 --bitrate 2482 --profile high --level 4.1 --ref 16 --deblock -2:-2 --merange 48 --bframes 8 --direct auto --b-adapt 2 --trellis 2 --no-fast-pskip --no-dct-decimate --psy-rd 1.00:0.12 --qcomp 0.65 --vbv-maxrate 50000 --vbv-bufsize 62500 --partitions all --subme 11 --me umh --no-mbtree --colorprim bt470bg --transfer bt470bg --colormatrix bt470bg --sar 16:15 --stats "K:\Ближний круг.1991.1 серия.log" --output "K:\Ближний круг.1991.1 серия.mkv" "L:\Temp\2243.avs"
avs [info]: 716x572p 16:15 @ 25/1 fps (cfr)
x264 [info]: using SAR=16/15
x264 [info]: using cpu capabilities: MMX2 SSE2Fast SSSE3 SSE4.2
x264 [info]: profile High, level 4.1
x264 [info]: frame I:841 Avg QP:14.39 size: 68041
x264 [info]: frame P:23558 Avg QP:17.17 size: 26873
x264 [info]: frame B:92907 Avg QP:19.06 size: 8239
x264 [info]: consecutive B-frames: 1.3% 1.6% 6.5% 14.4% 9.2% 64.9% 1.5% 0.3% 0.3%
x264 [info]: mb I I16..4: 19.8% 54.6% 25.6%
x264 [info]: mb P I16..4: 2.0% 17.9% 2.0% P16..4: 27.0% 29.9% 12.5% 2.3% 0.2% skip: 6.3%
x264 [info]: mb B I16..4: 0.1% 1.9% 0.1% B16..8: 32.6% 19.3% 3.3% direct: 7.1% skip:35.7% L0:35.8% L1:43.0% BI:21.3%
x264 [info]: 8x8 transform intra:80.8% inter:50.0%
x264 [info]: direct mvs spatial:98.9% temporal:1.1%
x264 [info]: coded y,uvDC,uvAC intra: 92.6% 81.1% 57.4% inter: 31.0% 22.5% 7.7%
x264 [info]: i16 v,h,dc,p: 39% 8% 21% 32%
x264 [info]: i8 v,h,dc,ddl,ddr,vr,hd,vl,hu: 13% 8% 11% 8% 12% 12% 10% 12% 12%
x264 [info]: i4 v,h,dc,ddl,ddr,vr,hd,vl,hu: 14% 8% 10% 8% 13% 14% 11% 11% 11%
x264 [info]: i8c dc,h,v,p: 34% 28% 23% 15%
x264 [info]: Weighted P-Frames: Y:4.5% UV:1.7%
x264 [info]: ref P L0: 39.6% 10.4% 19.3% 5.7% 5.6% 3.5% 3.7% 1.8% 2.0% 1.4% 1.6% 1.1% 1.3% 1.0% 1.1% 0.7%
x264 [info]: ref B L0: 80.7% 9.7% 2.9% 1.6% 1.1% 0.9% 0.7% 0.5% 0.4% 0.4% 0.3% 0.3% 0.3% 0.2% 0.1%
x264 [info]: ref B L1: 95.6% 4.4%
x264 [info]: kb/s:2481.95
x264 [total]: encoded 117306 frames, 11.64 fps, 2481.95 kb/s
General
Unique ID : 254318234179028155468291677458114927567 (0xBF53E906DBDCD9538976EB54719DDBCF)
Complete name : Ближний круг.1991.1 серия.mkv
Format : Matroska
Format version : Version 2
File size : 1.72 GiB
Duration : 1h 18mn
Overall bit rate : 3 156 Kbps
Movie name : «Ближний круг / The Inner Circle»
Encoded date : UTC 2013-06-11 15:49:17
Writing application : mkvmerge v5.8.0 ('No Sleep / Pillow') built on Sep 2 2012 15:37:04
Writing library : libebml v1.2.3 + libmatroska v1.3.0
Comment : DVDRip-AVC
Original date released : June 10th 2013
Encoded by : imgeorgest®
Video
ID : 1
Format : AVC
Format/Info : Advanced Video Codec
Format profile : High@L4.1
Format settings, CABAC : Yes
Format settings, ReFrames : 16 frames
Codec ID : V_MPEG4/ISO/AVC
Duration : 1h 18mn
Bit rate : 2 482 Kbps
Width : 716 pixels
Height : 572 pixels
Display aspect ratio : 4:3
Original display aspect ratio : 4:3
Frame rate : 25.000 fps
Color space : YUV
Chroma subsampling : 4:2:0
Bit depth : 8 bits
Scan type : Progressive
Bits/(Pixel*Frame) : 0.242
Stream size : 1.32 GiB (77%)
Title : Ближний круг / The Inner Circle 1991
Writing library : x264 core 130 r2273 b3065e6
Encoding settings : cabac=1 / ref=16 / deblock=1:-2:-2 / analyse=0x3:0x133 / me=umh / subme=11 / psy=1 / psy_rd=1.00:0.12 / mixed_ref=1 / me_range=48 / chroma_me=1 / trellis=2 / 8x8dct=1 / cqm=0 / deadzone=21,11 / fast_pskip=0 / chroma_qp_offset=-3 / threads=12 / lookahead_threads=2 / sliced_threads=0 / nr=0 / decimate=0 / interlaced=0 / bluray_compat=0 / constrained_intra=0 / bframes=8 / b_pyramid=2 / b_adapt=2 / b_bias=0 / direct=3 / weightb=1 / open_gop=0 / weightp=2 / keyint=250 / keyint_min=25 / scenecut=40 / intra_refresh=0 / rc_lookahead=40 / rc=2pass / mbtree=0 / bitrate=2482 / ratetol=1.0 / qcomp=0.65 / qpmin=0 / qpmax=69 / qpstep=4 / cplxblur=20.0 / qblur=0.5 / vbv_maxrate=50000 / vbv_bufsize=62500 / nal_hrd=none / ip_ratio=1.40 / pb_ratio=1.30 / aq=1:1.00
Language : Russian
Default : Yes
Forced : No
Color primaries : BT.470-6 System B, BT.470-6 System G, BT.601-6 625, BT.1358 625, BT.1700 625 PAL, BT.1700 625 SECAM
Transfer characteristics : BT.470-6 System B, BT.470-6 System G
Matrix coefficients : BT.470-6 System B, BT.470-6 System G, BT.601-6 625, BT.1358 625, BT.1700 625 PAL, BT.1700 625 SECAM, IEC 61966-2-4 601
Audio #1
ID : 2
Format : AC-3
Format/Info : Audio Coding 3
Mode extension : CM (complete main)
Codec ID : A_AC3
Duration : 1h 18mn
Bit rate mode : Constant
Bit rate : 448 Kbps
Channel(s) : 6 channels
Channel positions : Front: L C R, Side: L R, LFE
Sampling rate : 48.0 KHz
Bit depth : 16 bits
Compression mode : Lossy
Stream size : 251 MiB (14%)
Title : Оригинал AC-3; 16 bits 48 Khz; 6ch 448 Kbps; CBR
Language : Russian
Default : Yes
Forced : No
Audio #2
ID : 3
Format : AC-3
Format/Info : Audio Coding 3
Mode extension : CM (complete main)
Codec ID : A_AC3
Duration : 1h 18mn
Bit rate mode : Constant
Bit rate : 224 Kbps
Channel(s) : 1 channel
Channel positions : Front: C
Sampling rate : 48.0 KHz
Bit depth : 16 bits
Compression mode : Lossy
Stream size : 125 MiB (7%)
Title : Оригинал AC-3; 16 bits 48 Khz; 1.0ch 224 Kbps; CBR
Language : Russian
Default : No
Forced : No

2 серия

x264 log

x264.exe: --pass 2 --bitrate 2482 --profile high --level 4.1 --ref 16 --deblock -2:-2 --merange 48 --bframes 8 --direct auto --b-adapt 2 --trellis 2 --no-fast-pskip
--no-dct-decimate --psy-rd 1.00:0.12 --qcomp 0.65 --vbv-maxrate 50000 --vbv-bufsize 62500 --partitions all --subme 11 --me umh --no-mbtree --colorprim bt470bg
--transfer bt470bg --colormatrix bt470bg --sar 16:15 --stats "K:\Ближний круг.1991.2 серия.log" --output "K:\Ближний круг.1991.2 серия.mkv" "L:\Temp\2244.avs"
avs [info]: 716x572p 16:15 @ 25/1 fps (cfr)
x264 [info]: using SAR=16/15
x264 [info]: using cpu capabilities: MMX2 SSE2Fast SSSE3 SSE4.2
x264 [info]: profile High, level 4.1
x264 [info]: frame I:490 Avg QP:15.23 size: 68386
x264 [info]: frame P:15426 Avg QP:17.76 size: 26403
x264 [info]: frame B:63881 Avg QP:19.77 size: 8596
x264 [info]: consecutive B-frames: 1.1% 1.6% 5.2% 11.6% 8.0% 65.9% 3.4% 1.3% 1.9%
x264 [info]: mb I I16..4: 19.0% 56.0% 25.0%
x264 [info]: mb P I16..4: 1.6% 15.4% 1.6% P16..4: 28.0% 29.4% 12.5% 2.1% 0.2% skip: 9.2%
x264 [info]: mb B I16..4: 0.1% 1.8% 0.1% B16..8: 31.8% 18.1% 3.0% direct: 7.8% skip:37.1% L0:35.7% L1:42.0% BI:22.3%
x264 [info]: 8x8 transform intra:81.2% inter:50.0%
x264 [info]: direct mvs spatial:98.5% temporal:1.5%
x264 [info]: coded y,uvDC,uvAC intra: 91.1% 75.6% 49.3% inter: 32.2% 20.9% 6.9%
x264 [info]: i16 v,h,dc,p: 52% 10% 17% 21%
x264 [info]: i8 v,h,dc,ddl,ddr,vr,hd,vl,hu: 12% 8% 11% 9% 13% 13% 11% 12% 13%
x264 [info]: i4 v,h,dc,ddl,ddr,vr,hd,vl,hu: 13% 7% 13% 8% 13% 13% 11% 11% 12%
x264 [info]: i8c dc,h,v,p: 33% 29% 23% 15%
x264 [info]: Weighted P-Frames: Y:4.5% UV:1.1%
x264 [info]: ref P L0: 38.0% 10.6% 19.1% 6.0% 5.8% 3.7% 4.0% 1.9% 2.1% 1.5% 1.7% 1.2% 1.4% 1.0% 1.2% 0.8%
x264 [info]: ref B L0: 78.7% 9.9% 3.3% 1.8% 1.3% 1.1% 0.9% 0.6% 0.5% 0.5% 0.4% 0.4% 0.3% 0.2% 0.1%
x264 [info]: ref B L1: 95.1% 4.9%
x264 [info]: kb/s:2481.03
x264 [total]: encoded 79797 frames, 11.98 fps, 2481.03 kb/s
General
Unique ID : 177503925548334633374331660881426036286 (0x858A033636A675F9BC6847127302B63E)
Complete name : Ближний круг.1991.2 серия.mkv
Format : Matroska
Format version : Version 2
File size : 1.17 GiB
Duration : 53mn 11s
Overall bit rate : 3 154 Kbps
Movie name : «Ближний круг / The Inner Circle»
Encoded date : UTC 2013-06-11 18:05:11
Writing application : mkvmerge v5.8.0 ('No Sleep / Pillow') built on Sep 2 2012 15:37:04
Writing library : libebml v1.2.3 + libmatroska v1.3.0
Comment : DVDRip-AVC
Original date released : June 10th 2013
Encoded by : imgeorgest®
Video
ID : 1
Format : AVC
Format/Info : Advanced Video Codec
Format profile : High@L4.1
Format settings, CABAC : Yes
Format settings, ReFrames : 16 frames
Codec ID : V_MPEG4/ISO/AVC
Duration : 53mn 11s
Bit rate : 2 482 Kbps
Width : 716 pixels
Height : 572 pixels
Display aspect ratio : 4:3
Original display aspect ratio : 4:3
Frame rate : 25.000 fps
Color space : YUV
Chroma subsampling : 4:2:0
Bit depth : 8 bits
Scan type : Progressive
Bits/(Pixel*Frame) : 0.242
Stream size : 921 MiB (77%)
Title : Ближний круг / The Inner Circle 1991
Writing library : x264 core 130 r2273 b3065e6
Encoding settings : cabac=1 / ref=16 / deblock=1:-2:-2 / analyse=0x3:0x133 / me=umh / subme=11 / psy=1 / psy_rd=1.00:0.12 / mixed_ref=1 / me_range=48 / chroma_me=1 / trellis=2 / 8x8dct=1 / cqm=0 / deadzone=21,11 / fast_pskip=0 / chroma_qp_offset=-3 / threads=12 / lookahead_threads=2 / sliced_threads=0 / nr=0 / decimate=0 / interlaced=0 / bluray_compat=0 / constrained_intra=0 / bframes=8 / b_pyramid=2 / b_adapt=2 / b_bias=0 / direct=3 / weightb=1 / open_gop=0 / weightp=2 / keyint=250 / keyint_min=25 / scenecut=40 / intra_refresh=0 / rc_lookahead=40 / rc=2pass / mbtree=0 / bitrate=2482 / ratetol=1.0 / qcomp=0.65 / qpmin=0 / qpmax=69 / qpstep=4 / cplxblur=20.0 / qblur=0.5 / vbv_maxrate=50000 / vbv_bufsize=62500 / nal_hrd=none / ip_ratio=1.40 / pb_ratio=1.30 / aq=1:1.00
Language : Russian
Default : Yes
Forced : No
Color primaries : BT.470-6 System B, BT.470-6 System G, BT.601-6 625, BT.1358 625, BT.1700 625 PAL, BT.1700 625 SECAM
Transfer characteristics : BT.470-6 System B, BT.470-6 System G
Matrix coefficients : BT.470-6 System B, BT.470-6 System G, BT.601-6 625, BT.1358 625, BT.1700 625 PAL, BT.1700 625 SECAM, IEC 61966-2-4 601
Audio #1
ID : 2
Format : AC-3
Format/Info : Audio Coding 3
Mode extension : CM (complete main)
Codec ID : A_AC3
Duration : 53mn 11s
Bit rate mode : Constant
Bit rate : 448 Kbps
Channel(s) : 6 channels
Channel positions : Front: L C R, Side: L R, LFE
Sampling rate : 48.0 KHz
Bit depth : 16 bits
Compression mode : Lossy
Stream size : 170 MiB (14%)
Title : Оригинал AC-3; 16 bits 48 Khz; 6ch 448 Kbps; CBR
Language : Russian
Default : Yes
Forced : No
Audio #2
ID : 3
Format : AC-3
Format/Info : Audio Coding 3
Mode extension : CM (complete main)
Codec ID : A_AC3
Duration : 53mn 11s
Bit rate mode : Constant
Bit rate : 224 Kbps
Channel(s) : 1 channel
Channel positions : Front: C
Sampling rate : 48.0 KHz
Bit depth : 16 bits
Compression mode : Lossy
Stream size : 85.2 MiB (7%)
Title : Оригинал AC-3; 16 bits 48 Khz; 1.0ch 224 Kbps; CBR
Language : Russian
Default : No
Forced : No

Скриншоты

-

Исходник

-Сравнение с оригиналом:
http://screenshotcomparison.com/comparison/28002
Сравнение с раздачей:
http://rutracker.org/forum/viewtopic.php?t=620432
http://screenshotcomparison.com/comparison/28003-
KHUNTER писал(а):

страна?
Показать сообщения:    

Текущее время: Сегодня 14:15

Часовой пояс: GMT



Вы не можете начинать темы
Вы не можете отвечать на сообщения
Вы не можете редактировать свои сообщения
Вы не можете удалять свои сообщения
Вы не можете голосовать в опросах
Вы не можете прикреплять файлы к сообщениям
Вы не можете скачивать файлы