Важное объявление!
У Нас Все раздачи мультитрекерные, при нуле пиров в релизах, можете смело вставать на закачку!
 
Автор Сообщение

HUNTER

Стаж:
4 года 4 месяца
Сообщений:
56720

Репутация: 101

[+] [-]
Вне форума [Профиль] [ЛС]

Блеф Кугана / Coogan's Bluff«A Prisoner On the Loose, A Cop Over the Edge.
This Town Ain't Big Enough for the Both of Them»
________________________________________________________________________________________
Страна: США
Студия: Universal Pictures, Malpaso Company
Жанр: боевик, триллер, криминал
Год выпуска: 1968
Продолжительность: 01:34:19
Перевод 1: Профессиональный (дублированный) |BD EUR|
Перевод 2: Профессиональный (многоголосый закадровый)
Оригинальная аудиодорожка: английский
Cубтитры: русские, анлийские
Режиссер: Дон Сигел / Don Siegel
В ролях: Клинт Иствуд (Deputy Sheriff Walt Coogan), Ли Дж. Кобб (Det. Lt. McElroy, NYPD), Сьюзен Кларк (Julie Roth), Тиша Стерлинг (Linny Raven), Дон Страуд (James Ringerman), Бетти Филд (Mrs. Ellen Ringerman), Том Талли (Sheriff McCrea), Мелоди Джонсон (Millie), Джеймс Эдвардс (Sgt. Wallace), Руди Диас (Running Bear), Дэвид Дойл (Pushie), Луис Зорик (Taxi driver)
Описание: Куган, помощник шерифа из Аризоны, должен по долгу службы доставить из Нью-Йорка обратно в свой штат беглого преступника.
Во время конвоирования преступнику удается сбежать при помощи своих сообщников.
С этого начинаются приключения "Техасца", прозванного так с "легкой руки" нью-йоркскими полицейскими. Не стесняясь своей белой широкополой шляпы, с верным кольтом в руке, он показывает городским "ребятам" как надо выслеживать и ловить преступника.
Герой знает толк не только в стрельбе, но и в сердечных делах, ведь даже самые неприступные и коварные женщины после встречи с ним раскрывают ковбою все свои тайны...
________________________________________________________________________________________

Тип релиза: BDRemux 1080p (Coogan's Bluff 1968 Blu-ray EUR 1080p AVC DTS 2.0 - HDClub)
Контейнер: MKV
Видео: 1920х1080 at 23.976 fps, MPEG-4 AVC, ~33876 kbps avg
Аудио 1: Russian: DTS, 48 kHz, 2/0 (L,R) ch, ~447 kbps, 24-bit |Дубляж, BD EUR|
Аудио 2: Russian: DTS-HD Master Audio, 48 kHz, 2/0 (L,R) ch, ~1075 kbps, 16-bit (DTS Core: 2.0 / 48 kHz / 768 kbps / 16-bit) |Многоголосый закадровый|
Аудио 3: English: DTS-HD Master Audio, 48 kHz, 2/0 (L,R) ch, ~1852 kbps, 24-bit (DTS Core: 2.0 / 48 kHz / 1 509 kbps / 24-bit)
Cубтитры: Russian (forced, 2x full), English (SDH)
Цитата:
Цитата:

  • ВПЕРВЫЕ НОВЫЙ ДУБЛЯЖ ОТ ЮНИВЕРСАЛ!!!
  • Дорожка №2 получена наложением выделенного голоса на L, R каналы декодированного DTS-HD MA. За исходный ДВД спасибо Karbert. За саму русскую дорожку DTS-HD MA спасибо vlaluk.
  • Сохранены оригинальные главы как на Blu-ray.

MediaInfo

General
Unique ID : 202712012429915433846981431397298749927 (0x9880E9D9FE826898B9D2A8DAE38041E7)
Complete name : D:\Coogan's.Bluff.1968.1080p.BDRemux.2xRus.Eng.mkv
Format : Matroska
Format version : Version 4 / Version 2
File size : 24.5 GiB
Duration : 1h 34mn
Overall bit rate mode : Variable
Overall bit rate : 37.3 Mbps
Movie name : Блеф Кугана / Coogan's Bluff (1968)
Encoded date : UTC 2016-03-09 11:28:35
Writing application : mkvmerge v8.9.0 ('Father Daughter') 64bit
Writing library : libebml v1.3.3 + libmatroska v1.4.4
Cover : Yes
Attachments : cover.jpg
Video
ID : 1
Format : AVC
Format/Info : Advanced Video Codec
Format profile : High@L4.1
Format settings, CABAC : Yes
Format settings, ReFrames : 2 frames
Format settings, GOP : M=1, N=10
Codec ID : V_MPEG4/ISO/AVC
Duration : 1h 34mn
Bit rate mode : Variable
Bit rate : 33.9 Mbps
Width : 1 920 pixels
Height : 1 080 pixels
Display aspect ratio : 16:9
Frame rate mode : Constant
Frame rate : 23.976 (24000/1001) fps
Color space : YUV
Chroma subsampling : 4:2:0
Bit depth : 8 bits
Scan type : Progressive
Bits/(Pixel*Frame) : 0.681
Stream size : 22.3 GiB (91%)
Title : Блеф Кугана / Coogan's Bluff (1968) Blu-ray EUR 1080p AVC DTS 2.0
Language : English
Default : Yes
Forced : No
Audio #1
ID : 2
Format : DTS
Format/Info : Digital Theater Systems
Mode : 16
Format settings, Endianness : Big
Codec ID : A_DTS
Duration : 1h 34mn
Bit rate mode : Constant
Bit rate : 447 Kbps
Channel(s) : 2 channels
Channel positions : Front: L R
Sampling rate : 48.0 KHz
Frame rate : 93.750 fps (512 spf)
Bit depth : 24 bits
Compression mode : Lossy
Stream size : 302 MiB (1%)
Title : Дубляж, BD EUR
Language : Russian
Default : Yes
Forced : No
Audio #2
ID : 3
Format : DTS
Format/Info : Digital Theater Systems
Format profile : MA / Core
Mode : 16
Format settings, Endianness : Big
Codec ID : A_DTS
Duration : 1h 34mn
Bit rate mode : Variable / Constant
Bit rate : 1 075 Kbps / 768 Kbps
Channel(s) : 2 channels
Channel positions : Front: L R
Sampling rate : 48.0 KHz
Frame rate : 93.750 fps (512 spf)
Bit depth : 16 bits
Compression mode : Lossless / Lossy
Stream size : 725 MiB (3%)
Title : Многоголосый закадровый
Language : Russian
Default : No
Forced : No
Audio #3
ID : 4
Format : DTS
Format/Info : Digital Theater Systems
Format profile : MA / Core
Mode : 16
Format settings, Endianness : Big
Codec ID : A_DTS
Duration : 1h 34mn
Bit rate mode : Variable / Constant
Bit rate : 1 852 Kbps / 1 509 Kbps
Channel(s) : 2 channels
Channel positions : Front: L R
Sampling rate : 48.0 KHz
Frame rate : 93.750 fps (512 spf)
Bit depth : 24 bits
Compression mode : Lossless / Lossy
Stream size : 1.22 GiB (5%)
Language : English
Default : No
Forced : No
Text #1
ID : 5
Format : UTF-8
Codec ID : S_TEXT/UTF8
Codec ID/Info : UTF-8 Plain Text
Duration : 46mn 57s
Bit rate : 0 bps
Count of elements : 5
Stream size : 91.0 Bytes (0%)
Title : Forced, BD EUR
Language : Russian
Default : Yes
Forced : No
Text #2
ID : 6
Format : UTF-8
Codec ID : S_TEXT/UTF8
Codec ID/Info : UTF-8 Plain Text
Duration : 1h 31mn
Bit rate : 66 bps
Count of elements : 854
Stream size : 44.8 KiB (0%)
Title : Full, BD EUR
Language : Russian
Default : No
Forced : No
Text #3
ID : 7
Format : UTF-8
Codec ID : S_TEXT/UTF8
Codec ID/Info : UTF-8 Plain Text
Duration : 1h 29mn
Bit rate : 73 bps
Count of elements : 791
Stream size : 48.4 KiB (0%)
Language : Russian
Default : No
Forced : No
Text #4
ID : 8
Format : UTF-8
Codec ID : S_TEXT/UTF8
Codec ID/Info : UTF-8 Plain Text
Duration : 1h 29mn
Bit rate : 41 bps
Count of elements : 942
Stream size : 27.4 KiB (0%)
Title : SDH, BD EUR
Language : English
Default : No
Forced : No
Menu
00:00:00.000 : en:Chapter 1
00:06:33.893 : en:Chapter 2
00:12:17.027 : en:Chapter 3
00:20:03.327 : en:Chapter 4
00:25:40.413 : en:Chapter 5
00:29:58.546 : en:Chapter 6
00:34:14.802 : en:Chapter 7
00:39:41.337 : en:Chapter 8
00:44:25.120 : en:Chapter 9
00:50:43.081 : en:Chapter 10
00:53:43.845 : en:Chapter 11
01:02:54.979 : en:Chapter 12
01:08:49.041 : en:Chapter 13
01:13:18.727 : en:Chapter 14
01:20:11.014 : en:Chapter 15
01:25:52.939 : en:Chapter 16
01:30:47.817 : en:Chapter 17
01:33:35.067 : en:Chapter 18

Скриншоты



_________________
Показать сообщения:    

Текущее время: Сегодня 05:54

Часовой пояс: GMT



Вы не можете начинать темы
Вы не можете отвечать на сообщения
Вы не можете редактировать свои сообщения
Вы не можете удалять свои сообщения
Вы не можете голосовать в опросах
Вы не можете прикреплять файлы к сообщениям
Вы не можете скачивать файлы