Важное объявление!
У Нас Все раздачи мультитрекерные, при нуле пиров в релизах, можете смело вставать на закачку!
 
Автор Сообщение

HUNTER

Стаж:
4 года 4 месяца
Сообщений:
56809

Репутация: 101

[+] [-]
Вне форума [Профиль] [ЛС]

Благословенная земля / The Good Earth
Страна: США
Жанр: драма, мелодрама
Год выпуска: 1937
Продолжительность: 02:18:12
Перевод: Профессиональный (многоголосый закадровый) - Светла
Cубтитры: английские
Оригинальная аудиодорожка: английский
Режиссер: Сидни Франклин, Виктор Флеминг, Густав Махаты, Сэм Вуд / Sidney Franklin, Victor Fleming, Gustav Machaty, Sam Wood
В ролях: Пол Муни, Луиза Райнер, Уолтер Коннолли, Тилли Лош, Чарли Грейпвин, Джесси Ральф, Су Йонг, Кей Люк, Роланд Луи, Сюзанна Ким
Описание: Отец женит своего сына Вонга на освобожденной рабыне. Усердием и бережливостью им удается скопить немного денег и прикупить в собственность еще земли. Но когда наступают голодные годы, они вынуждены оставить землю и перебраться в город.
По счастливой случайности, его жена, чуть не погибнув, достает для семьи целое состояние в виде драгоценных камней, что дает им возможность вернуться на свою землю уже богатыми…
Доп. информация:


За дорожку с переводом спасибо StuPenguin
Сэмпл: http://sendfile.su/1043715
Тип релиза: WEB-DL 720p
Контейнер: MKV
Видео: AVC, 996x720, L3.1, 23.976fps, 4260kbps
Аудио 1: Russian: AC3, 48000Hz, 2ch, 192kbps
Аудио 2: English: AC3, 48000Hz, 2ch, 192kbps - DVD
Аудио 3: English: AAC, 48000Hz, 2ch, 117kbps - WEB-DL
Формат субтитров: softsub (SRT)

MediaInfo

Общее
Уникальный идентификатор : 245779781169556115893326560139652828925 (0xB8E776CA88F6864DBB415EFB7F830EFD)
Полное имя : T:\The Good Earth (WEB-DL 720p).mkv
Формат : Matroska
Версия формата : Version 4 / Version 2
Размер файла : 4,60 Гбайт
Продолжительность : 2 ч. 18 м.
Общий поток : 4761 Кбит/сек
Дата кодирования : UTC 2014-11-03 07:34:17
Программа кодирования : mkvmerge v6.9.1 ('Blue Panther') 64bit built on Apr 18 2014 18:23:38
Библиотека кодирования : libebml v1.3.0 + libmatroska v1.4.1
Видео
Идентификатор : 1
Формат : AVC
Формат/Информация : Advanced Video Codec
Профиль формата : High@L3.1
Параметр CABAC формата : Нет
Параметр ReFrames формата : 2 кадра
Идентификатор кодека : V_MPEG4/ISO/AVC
Продолжительность : 2 ч. 18 м.
Ширина : 996 пикселей
Высота : 720 пикселей
Соотношение сторон : 1,383
Режим частоты кадров : Постоянный
Частота кадров : 23,976 кадра/сек
Цветовое пространство : YUV
Субдискретизация насыщенности : 4:2:0
Битовая глубина : 8 бит
Тип развёртки : Прогрессивная
Язык : English
Default : Да
Forced : Нет
Основные цвета : BT.709
Характеристики трансфера : BT.709
Коэффициенты матрицы : BT.709
Аудио #1
Идентификатор : 2
Формат : AC-3
Формат/Информация : Audio Coding 3
Расширение режима : CM (complete main)
Параметр Endianness формата : Big
Идентификатор кодека : A_AC3
Продолжительность : 2 ч. 18 м.
Вид битрейта : Постоянный
Битрейт : 192 Кбит/сек
Каналы : 2 канала
Расположение каналов : Front: L R
Частота : 48,0 КГц
Битовая глубина : 16 бит
Метод сжатия : С потерями
Размер потока : 190 Мбайт (4%)
Заголовок : Светла
Язык : Russian
Default : Да
Forced : Нет
Аудио #2
Идентификатор : 3
Формат : AC-3
Формат/Информация : Audio Coding 3
Расширение режима : CM (complete main)
Параметр Endianness формата : Big
Идентификатор кодека : A_AC3
Продолжительность : 2 ч. 18 м.
Вид битрейта : Постоянный
Битрейт : 192 Кбит/сек
Каналы : 2 канала
Расположение каналов : Front: L R
Частота : 48,0 КГц
Битовая глубина : 16 бит
Метод сжатия : С потерями
Размер потока : 190 Мбайт (4%)
Заголовок : DVD
Язык : English
Default : Нет
Forced : Нет
Аудио #3
Идентификатор : 4
Формат : AAC
Формат/Информация : Advanced Audio Codec
Профиль формата : LC
Идентификатор кодека : A_AAC
Продолжительность : 2 ч. 18 м.
Каналы : 2 канала
Расположение каналов : Front: L R
Частота : 48,0 КГц
Метод сжатия : С потерями
Заголовок : WEB-DL
Язык : English
Default : Нет
Forced : Нет
Текст
Идентификатор : 5
Формат : UTF-8
Идентификатор кодека : S_TEXT/UTF8
Идентификатор кодека/Информация : UTF-8 Plain Text
Язык : English
Default : Нет
Forced : Нет
Меню
00:00:00.000 : en:Credits
00:02:06.000 : en:Wang Lung's Marriage Day
00:09:08.000 : en:O-Lan
00:15:52.000 : en:Planting A Seed
00:21:05.000 : en:I Am With Child
00:25:13.000 : en:Racing The Rain
00:30:24.000 : en:A Son
00:34:58.000 : en:More Land
00:40:04.000 : en:Return To The Great House
00:44:51.000 : en:Famine
00:50:28.000 : en:Hunger Makes Men Mad
00:56:38.000 : en:No Sale, No Life
01:01:18.000 : en:Migrating South
01:05:38.000 : en:Meat And Job Theft
01:09:42.000 : en:Revolution
01:13:14.000 : en:Storming The Great House
01:17:39.000 : en:Firing Squad
01:21:11.000 : en:Precious Stones
01:26:55.000 : en:Contracts Agreed And Proposed
01:30:20.000 : en:Dancing Lotus
01:34:11.000 : en:Another Woman
01:41:01.000 : en:Second Wife's Wish
01:44:17.000 : en:Taken Her Fancy
01:46:34.000 : en:Better Dead Than Here
01:50:34.000 : en:Friends Part
01:53:49.000 : en:Banishment
01:57:42.000 : en:Preparing For Invasion
02:01:30.000 : en:Locust Plague
02:09:14.000 : en:On The Land Again
02:11:38.000 : en:Wedding Feast
02:14:42.000 : en:You Are The Earth

Скриншоты


_________________
Показать сообщения:    

Текущее время: Сегодня 17:18

Часовой пояс: GMT



Вы не можете начинать темы
Вы не можете отвечать на сообщения
Вы не можете редактировать свои сообщения
Вы не можете удалять свои сообщения
Вы не можете голосовать в опросах
Вы не можете прикреплять файлы к сообщениям
Вы не можете скачивать файлы