Важное объявление!
У Нас Все раздачи мультитрекерные, при нуле пиров в релизах, можете смело вставать на закачку!
 
Автор Сообщение

HUNTER

Стаж:
4 года 4 месяца
Сообщений:
56842

Репутация: 101

[+] [-]
Вне форума [Профиль] [ЛС]

Битва проклятых / Battle of the Damned
Страна: США, Сингапур
Жанр: ужасы, фантастика, боевик, триллер, приключения
Год выпуска: 2013
Продолжительность: 01:28:46
Перевод: Любительский (двухголосый закадровый) Сладкая парочка
Cубтитры: английские
Оригинальная аудиодорожка: английский
Режиссер: Кристофер Хаттон / Christopher Hatton
В ролях: Дольф Лундгрен, Мелани Занетти, Мэтт Доран, Дэвид Филд, Джен Санг Отербридж, Лидия Лук, Ода Мария, Джефф Прюитт, Керри Вонг, Эстебан Куето
Описание:
Согласно сюжету, где-то на краю цивилизации тестовая лаборатория лежит в руинах. Из-за досадной ошибки службы безопасности лаборатории произошла катастрофа. Огромное число людей в одночасье превратились в зомби. И лишь небольшая кучка выживших, возглавляемая отважным солдатом Максом Гатлингом, с оружием в руках пробирается сквозь армию мутировавших. Вроде бы, пока все в духе традиционных зомби-хорроров… Однако нашим героям неведома другая смертельная опасность. Из-за все той же аварии на свободе оказались прототипы военных роботов. Хорошо вооруженные, бронированные и чрезвычайно опасные машины по замыслу их создателей должны были в случае непредвиденной ситуации начать немедленную борьбу с живыми мертвецами. Но роботы не были доведены до ума и оказались неспособны отличать обычных людей от зомби.
- || -Тип релиза: BDRip 720p (рип от xmc1332@CtrlHD)
Контейнер: MKV
Видео: AVC (x264), 1280x720 (16:9) at 23,976 fps, 4347 Кbps, 0.197 bpp
Аудио 1: AC3; 448 Kbps; CBR; 6 ch; 48 khz | DVO |
Аудио 2: AC3; 640 Kbps; CBR; 6 ch; 48 khz | Английский |
Формат субтитров: softsub (SRT)

Скриншоты || x264 Info || MediaInfo || Notes

MediaInfo
Код:
General
Unique ID                                : 225692091632241913183410305943826894548 (0xA9CAB73B4CBBEAD789B6049EB1248ED4)
Complete name                            : Битва проклятых.2013.DVO.720p.BluRay.x264-CtrlHD.mkv
Format                                   : Matroska
Format version                           : Version 4 / Version 2
File size                                : 3.44 GiB
Duration                                 : 1h 28mn
Overall bit rate                         : 5 545 Kbps
Movie name                               : Battle of the Damned [2013] [720p] DVO
Encoded date                             : UTC 2016-03-02 05:21:27
Writing application                      : mkvmerge v7.8.0 ('River Man') 32bit built on Mar 27 2015 16:18:02
Writing library                          : libebml v1.3.1 + libmatroska v1.4.2
Video
ID                                       : 1
Format                                   : AVC
Format/Info                              : Advanced Video Codec
Format profile                           : High@L4.1
Format settings, CABAC                   : Yes
Format settings, ReFrames                : 9 frames
Codec ID                                 : V_MPEG4/ISO/AVC
Duration                                 : 1h 28mn
Bit rate                                 : 4 347 Kbps
Width                                    : 1 280 pixels
Height                                   : 720 pixels
Display aspect ratio                     : 16:9
Frame rate mode                          : Constant
Frame rate                               : 23.976 fps
Color space                              : YUV
Chroma subsampling                       : 4:2:0
Bit depth                                : 8 bits
Scan type                                : Progressive
Bits/(Pixel*Frame)                       : 0.197
Stream size                              : 2.70 GiB (78%)
Title                                    : profile.php?mode=viewprofile&u=22488948
Writing library                          : x264 core 133 r2334 a3ac64b
Encoding settings                        : cabac=1 / ref=9 / deblock=1:-3:-3 / analyse=0x3:0x113 / me=tesa / subme=11 / psy=1 / psy_rd=1.10:0.10 / mixed_ref=1 / me_range=32 / chroma_me=1 / trellis=2 / 8x8dct=1 / cqm=0 / deadzone=21,11 / fast_pskip=0 / chroma_qp_offset=-5 / threads=12 / lookahead_threads=2 / sliced_threads=0 / nr=0 / decimate=0 / interlaced=0 / bluray_compat=0 / constrained_intra=0 / bframes=8 / b_pyramid=2 / b_adapt=2 / b_bias=0 / direct=3 / weightb=1 / open_gop=0 / weightp=2 / keyint=250 / keyint_min=23 / scenecut=40 / intra_refresh=0 / rc=crf / mbtree=0 / crf=17.0 / qcomp=0.60 / qpmin=0 / qpmax=69 / qpstep=4 / ip_ratio=1.20 / pb_ratio=1.30 / aq=1:0.85
Language                                 : English
Default                                  : Yes
Forced                                   : No
Audio #1
ID                                       : 2
Format                                   : AC-3
Format/Info                              : Audio Coding 3
Mode extension                           : CM (complete main)
Format settings, Endianness              : Big
Codec ID                                 : A_AC3
Duration                                 : 1h 28mn
Bit rate mode                            : Constant
Bit rate                                 : 448 Kbps
Channel(s)                               : 6 channels
Channel positions                        : Front: L C R, Side: L R, LFE
Sampling rate                            : 48.0 KHz
Bit depth                                : 16 bits
Compression mode                         : Lossy
Stream size                              : 284 MiB (8%)
Title                                    : DVO [Сладкая парочка]
Language                                 : Russian
Default                                  : Yes
Forced                                   : No
Audio #2
ID                                       : 3
Format                                   : AC-3
Format/Info                              : Audio Coding 3
Mode extension                           : CM (complete main)
Format settings, Endianness              : Big
Codec ID                                 : A_AC3
Duration                                 : 1h 28mn
Bit rate mode                            : Constant
Bit rate                                 : 640 Kbps
Channel(s)                               : 6 channels
Channel positions                        : Front: L C R, Side: L R, LFE
Sampling rate                            : 48.0 KHz
Bit depth                                : 16 bits
Compression mode                         : Lossy
Stream size                              : 406 MiB (12%)
Language                                 : English
Default                                  : No
Forced                                   : No
Text
ID                                       : 4
Format                                   : UTF-8
Codec ID                                 : S_TEXT/UTF8
Codec ID/Info                            : UTF-8 Plain Text
Language                                 : English
Default                                  : No
Forced                                   : No
Menu
00:00:00.000                             : en:00:00:00.000
00:15:54.370                             : en:00:15:54.370
00:22:59.044                             : en:00:22:59.044
00:30:41.965                             : en:00:30:41.965
00:37:51.310                             : en:00:37:51.310
00:43:54.006                             : en:00:43:54.006
00:52:16.967                             : en:00:52:16.967
00:59:13.800                             : en:00:59:13.800
01:05:35.890                             : en:01:05:35.890
01:10:17.671                             : en:01:10:17.671
01:22:08.840                             : en:01:22:08.840
01:25:24.619                             : en:01:25:24.619

x264 Info

x264 [info]: frame I:1125 Avg QP:15.85 size: 89822
x264 [info]: frame P:34870 Avg QP:16.25 size: 44880
x264 [info]: frame B:91565 Avg QP:18.37 size: 14204
x264 [info]: consecutive B-frames: 6.8% 6.3% 12.4% 22.7% 13.7% 21.6% 5.6% 7.3% 3.5%
Цитата: Аудио дорожка №1 взята с этой [url=viewtopic.php?t=4505893]раздачи[/url], thx: митька007

_________________
Показать сообщения:    

Текущее время: Сегодня 14:10

Часовой пояс: GMT



Вы не можете начинать темы
Вы не можете отвечать на сообщения
Вы не можете редактировать свои сообщения
Вы не можете удалять свои сообщения
Вы не можете голосовать в опросах
Вы не можете прикреплять файлы к сообщениям
Вы не можете скачивать файлы