Важное объявление!
У Нас Все раздачи мультитрекерные, при нуле пиров в релизах, можете смело вставать на закачку!
 
Автор Сообщение

HUNTER

Стаж:
4 года 4 месяца
Сообщений:
56842

Репутация: 101

[+] [-]
Вне форума [Профиль] [ЛС]

-Битва за Севастополь
-Страна: Россия, Украина
Студия: Новые люди
Жанр: военный, боевик, мелодрама, драма
Год выпуска: 2015
Мировая премьера: 2 апреля 2015
Российская премьера: 2 апреля 2015, «Двадцатый Век Фокс СНГ»
Дата выхода DVD: 12 мая 2015, «Lizard Cinema Trade»
Дата выхода Blu-Ray: 12 мая 2015, «Lizard Cinema Trade»
Продолжительность: 01:57:54
Перевод: Оригинал [Лицензия]
Cубтитры: нет
Оригинальная аудиодорожка: русский-Режиссер: Сергей Мокрицкий-В ролях: Юлия Пересильд, Евгений Цыганов, Олег Васильков, Никита Тарасов, Джоан Блэкэм, Полина Пахомова, Владимир Лилицкий, Анатолий Кот, Нателла Абелева-Таганова, Валерий Гришко-Описание: Любовь под нескончаемым огнем противника, дружба с Элеонорой Рузвельт, выступление на конференции, повлиявшее на исход Второй мировой войны, желание жить и страх потерять любимого человека — справится ли со всем этим хрупкая женщина?
Это реальная история Людмилы Павличенко — легендарной женщины-снайпера. Солдаты шли в бой с ее именем на устах, а враги устроили на нее охоту. На поле битвы она видела смерть и страдания, но самым серьезным испытанием для нее стала любовь, которую у нее могла забрать война…
-Бонусы: нет- -Качество: DVD9 R5
Формат: DVD-Video
Видео кодек: MPEG2
Аудио кодек: AC3 + DTS
Видео: PAL 16:9 (720x576(0.658)) MPEG Video, 25,000 кадр/сек, 6821 Кбит/сек
Аудио #1: Russian (Dolby AC3, 6 ch) 448 Кбит/сек, 48,0 КГц
Аудио #2: Russian (DTS, 5 ch) 768 Кбит/сек, 48,0 КГц--

DVDInfo

Title: Рабочий
Size: 6.80 Gb ( 7 132 294 KBytes ) - DVD-9
Enabled regions: 1, 2, 3, 4, 5, 6, 7, 8
VTS_01 :
Play Length: 00:00:25
Video: PAL 16:9 (720x576) VBR, Auto Pan&Scan, Auto Letterboxed
Audio:
Russian (Dolby AC3, 6 ch)
English (Dolby AC3, 6 ch)
English (Dolby AC3, 6 ch)
VTS_02 :
Play Length: 01:57:54
Video: PAL 16:9 (720x576) VBR, Auto Pan&Scan, Auto Letterboxed
Audio:
Russian (Dolby AC3, 6 ch)
Russian (DTS, 5 ch)
Menu Video:
PAL 16:9 (720x576) VBR
Auto Pan&Scan, Auto Letterboxed
Menu Subtitles:
Not specified
Menu English Language Unit :
Root Menu
Chapter (PTT) Menu
Audio Menu

MediaInfo

Общее
Полное имя : F:\Новинки 2015\Bitva.za.Sevastopol.2015.DVD9\VIDEO_TS\VTS_02_2.VOB
Формат : MPEG-PS
Размер файла : 1024 Мбайт
Продолжительность : 17 м.
Режим общего битрейта : Переменный
Общий поток : 8186 Кбит/сек
Видео
Идентификатор : 224 (0xE0)
Формат : MPEG Video
Версия формата : Version 2
Профиль формата : Main@Main
Параметр BVOP формата : Да
Параметр матрицы формата : Выборочная
Параметр GOP формата : Variable
Продолжительность : 17 м.
Вид битрейта : Переменный
Битрейт : 6821 Кбит/сек
Максимальный битрейт : 8500 Кбит/сек
Ширина : 720 пикселей
Высота : 576 пикселей
Соотношение сторон : 16:9
Частота кадров : 25,000 кадров/сек
Стандарт вещания : PAL
Цветовое пространство : YUV
Субдискретизация насыщенности : 4:2:0
Битовая глубина : 8 бит
Тип развёртки : Прогрессивная
Метод сжатия : С потерями
Бит/(Пиксели*Кадры) : 0.658
Временной код первого кадра : 00:18:12:13
Оригинал временного кода : Group of pictures header
GOP, открыто/закрыто : Открыто
Размер потока : 853 Мбайт (83%)
Аудио #1
Идентификатор : 189 (0xBD)-128 (0x80)
Формат : AC-3
Формат/Информация : Audio Coding 3
Расширение режима : CM (complete main)
Параметр Endianness формата : Big
Режим смешивания : DVD-Video
Продолжительность : 17 м.
Вид битрейта : Постоянный
Битрейт : 448 Кбит/сек
Каналы : 6 каналов
Расположение каналов : Front: L C R, Side: L R, LFE
Частота : 48,0 КГц
Битовая глубина : 16 бит
Метод сжатия : С потерями
Задержка видео : -536 мс.
Размер потока : 56,0 Мбайт (5%)
Аудио #2
Идентификатор : 189 (0xBD)-137 (0x89)
Формат : DTS
Формат/Информация : Digital Theater Systems
Режим : 16
Параметр Endianness формата : Big
Режим смешивания : DVD-Video
Продолжительность : 17 м.
Вид битрейта : Постоянный
Битрейт : 755 Кбит/сек
Каналы : 6 каналов
Расположение каналов : Front: L C R, Side: L R, LFE
Частота : 48,0 КГц
Битовая глубина : 24 бит
Метод сжатия : С потерями
Задержка видео : -568 мс.
Размер потока : 94,4 Мбайт (9%)

Скриншоты меню

Скриншоты фильма


-
-Раздача от группы:

_________________
Показать сообщения:    

Текущее время: Сегодня 16:17

Часовой пояс: GMT



Вы не можете начинать темы
Вы не можете отвечать на сообщения
Вы не можете редактировать свои сообщения
Вы не можете удалять свои сообщения
Вы не можете голосовать в опросах
Вы не можете прикреплять файлы к сообщениям
Вы не можете скачивать файлы
Наши партнеры: интернет магазин Ивановского трикотажа textilla.ru