Важное объявление!
У Нас Все раздачи мультитрекерные, при нуле пиров в релизах, можете смело вставать на закачку!
 
Автор Сообщение

HUNTER

Стаж:
4 года 4 месяца
Сообщений:
56720

Репутация: 101

[+] [-]
Вне форума [Профиль] [ЛС]

Битва за Севастополь
Год выпуска: 2012
Страна: Россия
Выпущено: ООО ''О.С.А.-Продакшн'' по заказу (С) ОАО ''ТРК ВС РФ ''ЗВЕЗДА''
Жанр: Документальный
Продолжительность: 3 фильма (00:36:07 + 00:36:01 + 00:34:16)
Перевод: Не требуется
Русские субтитры: нет

Режиссер: Алексей Лябах
Описание: Битва за Севастополь - психологический перелом, который изменил весь ход наступления на Южном направлении. До настоящего момента написано много книг об обороне Севастополя, но нет ни одной работы, которая могла бы объяснить: почему Севастополь так сильно трогает сердце русского человека и в чем феномен обороны города? Участники сражений с советской и немецкой сторон впервые расскажут о том, что было на самом деле.
Фильм 1 - Севастополь против Третьего Рейха
Осенью 1941 года, перед началом крымской компании, Адольф Гитлер делает заявление: без Крыма и Севастополя война не имеет смысла. Фюрер абсолютно уверен: земли, на которых когда-то обитали предки германских племен, принесут ему удачу и откроют тайную силу древних готов. Лидер фашистской Германии верит в мистику и скорую победу. Он бросает на покорение Севастополя элитные войска. Способен ли окруженный город выдержать натиск лучшей армии в мире и диверсионные операции Абвера?
Фильм 2 - Форт Сталин
В 1941 году за отчаянное сопротивление немцы дали этой небольшой высоте, расположенной на окраине Севастополя, громкое название «Форт Сталин». Поисковики нашли пожилого человека, который на сегодня является единственным живым свидетелем битвы за «Форт Сталин». Рассказ немецкого ветерана Курта Шольца перевернул все представления о сражении, которое развернулось в конце декабря 1941 года, когда взвод советских солдат разбил элитную немецкую дивизию, усиленную румынскими частями, танками и артиллерией.
Фильм 3 - Освобождение Севастополя
1943 год. После поражения под Сталинградом и на Курской дуге советники рекомендуют Гитлеру срочно пересмотреть стратегию войны и готовиться к обороне. Сотни тысяч узников концлагерей, как правило, бывших солдат Красной Армии выводят на работы. От Балтики до Черного моря они строят новые укрепления, которые должны остановить советские войска. С этого момента война меняет свое направление и ставит точку на грандиозных планах фюрера по переустройству восточных территорий.

Доп. информация: Релиз: GeneralFilm
качество: SATRip
формат: AVI
Видео: 704x400 (1.76:1), 25 fps, XviD build 50 ~1761 kbps avg, 0.25 bit/pixel
Аудио: 48 kHz, MPEG Layer 3, 2 ch, ~192.00 kbps avg

MediaInfo

Complete name : Film.01.Bitva.za.Sevastopolj.(2012).SATRip.avi
Format : AVI
Format/Info : Audio Video Interleave
File size : 507 MiB
Duration : 36mn 7s
Overall bit rate : 1 964 Kbps
Writing application : VirtualDubMod 1.5.10.3 | www.virtualdub-fr.org || (build 2550/release)
Writing library : VirtualDubMod build 2550/release
Video
ID : 0
Format : MPEG-4 Visual
Format profile : Advanced Simple@L5
Format settings, BVOP : Yes
Format settings, QPel : No
Format settings, GMC : No warppoints
Format settings, Matrix : Default (H.263)
Codec ID : XVID
Codec ID/Hint : XviD
Duration : 36mn 7s
Bit rate : 1 762 Kbps
Width : 704 pixels
Height : 400 pixels
Display aspect ratio : 16:9
Frame rate : 25.000 fps
Resolution : 8 bits
Colorimetry : 4:2:0
Scan type : Progressive
Bits/(Pixel*Frame) : 0.250
Stream size : 455 MiB (90%)
Writing library : XviD 1.2.1 (UTC 2008-12-04)
Audio
ID : 1
Format : MPEG Audio
Format version : Version 1
Format profile : Layer 3
Codec ID : 55
Codec ID/Hint : MP3
Duration : 36mn 7s
Bit rate mode : Constant
Bit rate : 192 Kbps
Channel(s) : 2 channels
Sampling rate : 48.0 KHz
Stream size : 49.6 MiB (10%)
Alignment : Aligned on interleaves
Interleave, duration : 40 ms (1.00 video frame)
Interleave, preload duration : 504 ms
Writing library : LAME3.99r
Encoding settings : -m s -V 4 -q 2 -lowpass 18.6 -b 192
Complete name : Film.02.Bitva.za.Sevastopolj.(2012).SATRip.avi
Format : AVI
Format/Info : Audio Video Interleave
File size : 506 MiB
Duration : 36mn 2s
Overall bit rate : 1 963 Kbps
Writing application : VirtualDubMod 1.5.10.3 | www.virtualdub-fr.org || (build 2550/release)
Writing library : VirtualDubMod build 2550/release
Video
ID : 0
Format : MPEG-4 Visual
Format profile : Advanced Simple@L5
Format settings, BVOP : Yes
Format settings, QPel : No
Format settings, GMC : No warppoints
Format settings, Matrix : Default (H.263)
Codec ID : XVID
Codec ID/Hint : XviD
Duration : 36mn 2s
Bit rate : 1 761 Kbps
Width : 704 pixels
Height : 400 pixels
Display aspect ratio : 16:9
Frame rate : 25.000 fps
Resolution : 8 bits
Colorimetry : 4:2:0
Scan type : Progressive
Bits/(Pixel*Frame) : 0.250
Stream size : 454 MiB (90%)
Writing library : XviD 1.2.1 (UTC 2008-12-04)
Audio
ID : 1
Format : MPEG Audio
Format version : Version 1
Format profile : Layer 3
Codec ID : 55
Codec ID/Hint : MP3
Duration : 36mn 1s
Bit rate mode : Constant
Bit rate : 192 Kbps
Channel(s) : 2 channels
Sampling rate : 48.0 KHz
Stream size : 49.5 MiB (10%)
Alignment : Aligned on interleaves
Interleave, duration : 40 ms (1.00 video frame)
Interleave, preload duration : 504 ms
Writing library : LAME3.99r
Encoding settings : -m s -V 4 -q 2 -lowpass 18.6 -b 192
Complete name : Film.03.Bitva.za.Sevastopolj.(2012).SATRip.avi
Format : AVI
Format/Info : Audio Video Interleave
File size : 481 MiB
Duration : 34mn 16s
Overall bit rate : 1 964 Kbps
Writing application : VirtualDubMod 1.5.10.3 | www.virtualdub-fr.org || (build 2550/release)
Writing library : VirtualDubMod build 2550/release
Video
ID : 0
Format : MPEG-4 Visual
Format profile : Advanced Simple@L5
Format settings, BVOP : Yes
Format settings, QPel : No
Format settings, GMC : No warppoints
Format settings, Matrix : Default (H.263)
Codec ID : XVID
Codec ID/Hint : XviD
Duration : 34mn 16s
Bit rate : 1 762 Kbps
Width : 704 pixels
Height : 400 pixels
Display aspect ratio : 16:9
Frame rate : 25.000 fps
Resolution : 8 bits
Colorimetry : 4:2:0
Scan type : Progressive
Bits/(Pixel*Frame) : 0.250
Stream size : 432 MiB (90%)
Writing library : XviD 1.2.1 (UTC 2008-12-04)
Audio
ID : 1
Format : MPEG Audio
Format version : Version 1
Format profile : Layer 3
Codec ID : 55
Codec ID/Hint : MP3
Duration : 34mn 16s
Bit rate mode : Constant
Bit rate : 192 Kbps
Channel(s) : 2 channels
Sampling rate : 48.0 KHz
Stream size : 47.1 MiB (10%)
Alignment : Aligned on interleaves
Interleave, duration : 40 ms (1.00 video frame)
Interleave, preload duration : 504 ms
Writing library : LAME3.99r
Encoding settings : -m s -V 4 -q 2 -lowpass 18.6 -b 192
- -

_________________
Показать сообщения:    

Текущее время: Сегодня 05:44

Часовой пояс: GMT



Вы не можете начинать темы
Вы не можете отвечать на сообщения
Вы не можете редактировать свои сообщения
Вы не можете удалять свои сообщения
Вы не можете голосовать в опросах
Вы не можете прикреплять файлы к сообщениям
Вы не можете скачивать файлы