Важное объявление!
У Нас Все раздачи мультитрекерные, при нуле пиров в релизах, можете смело вставать на закачку!
 
Автор Сообщение

HUNTER

Стаж:
4 года 4 месяца
Сообщений:
56719

Репутация: 101

[+] [-]
Вне форума [Профиль] [ЛС]

Битва за Севастополь
Год выпуска: 2012
Страна: Россия
Жанр: Документальный
Продолжительность: 00:36:07+00:36:02+00:34:19
Перевод: Не требуется
Режиссер: Алексей Лябах
Фильм 1 - Севастополь против Третьего Рейха : Осенью 1941 года, перед началом крымской компании, Адольф Гитлер делает заявление: без Крыма и Севастополя война не имеет смысла. Фюрер абсолютно уверен: земли, на которых когда-то обитали предки германских племен, принесут ему удачу и откроют тайную силу древних готов. Лидер фашистской Германии верит в мистику и скорую победу. Он бросает на покорение Севастополя элитные войска. Способен ли окруженный город выдержать натиск лучшей армии в мире и диверсионные операции Абвера?
Фильм 2 - Форт Сталин : В 1941 году за отчаянное сопротивление немцы дали этой небольшой высоте, расположенной на окраине Севастополя, громкое название «Форт Сталин». Поисковики нашли пожилого человека, который на сегодня является единственным живым свидетелем битвы за «Форт Сталин». Рассказ немецкого ветерана Курта Шольца перевернул все представления о сражении, которое развернулось в конце декабря 1941 года, когда взвод советских солдат разбил элитную немецкую дивизию, усиленную румынскими частями, танками и артиллерией.
Фильм 3 - Освобождение Севастополя : 1943 год. После поражения под Сталинградом и на Курской дуге советники рекомендуют Гитлеру срочно пересмотреть стратегию войны и готовиться к обороне. Сотни тысяч узников концлагерей, как правило, бывших солдат Красной Армии выводят на работы. От Балтики до Черного моря они строят новые укрепления, которые должны остановить советские войска. С этого момента война меняет свое направление и ставит точку на грандиозных планах фюрера по переустройству восточных территорий.
Запись со спутника Yamal 202
качество: DVB
формат: MPG
Видео: MPEG2, 704х576, 4840 Kbps, 25 fps, Bits/(Pixel*Frame) : 0.477
Аудио: MP2, 192 Kbps, 2 ch, 48 KHz

MediaInfo

E:\Документалистика\Битва за Севастополь\Фильм 1 - Севастополь против Третьего Рейха.mpg
General
Complete name : E:\Документалистика\Битва за Севастополь\Фильм 1 - Севастополь против Третьего Рейха.mpg
Format : MPEG-PS
File size : 1.30 GiB
Duration : 36mn 7s
Overall bit rate : 5 151 Kbps
Writing library : (c) 1998-2011 Womble Multimedia, Inc. / MPEG Video Wizard DVD 5.0.1.100 (03/2011) / May 27 2011
Video #224
ID : 224 (0xE0)
Format : MPEG Video
Format version : Version 2
Format profile : Main@Main
Format settings, BVOP : Yes
Format settings, Matrix : Default
Duration : 36mn 7s
Bit rate : 4 840 Kbps
Width : 704 pixels
Height : 576 pixels
Display aspect ratio : 4:3
Frame rate : 25.000 fps
Standard : PAL
Color space : YUV
Chroma subsampling : 4:2:0
Bit depth : 8 bits
Compression mode : Lossy
Bits/(Pixel*Frame) : 0.477
Stream size : 1.23 GiB (94%)
Writing library : (c) 1998-2011 Womble Multimedia, Inc. / MPEG Video Wizard DVD 5.0.1.100 (03/2011) / May 27 2011
Audio #192
ID : 192 (0xC0)
Format : MPEG Audio
Format version : Version 1
Format profile : Layer 2
Duration : 36mn 7s
Bit rate mode : Constant
Bit rate : 192 Kbps
Channel(s) : 2 channels
Sampling rate : 48.0 KHz
Compression mode : Lossy
Stream size : 49.6 MiB (4%)

Скриншоты


_________________
Показать сообщения:    

Текущее время: Сегодня 22:25

Часовой пояс: GMT



Вы не можете начинать темы
Вы не можете отвечать на сообщения
Вы не можете редактировать свои сообщения
Вы не можете удалять свои сообщения
Вы не можете голосовать в опросах
Вы не можете прикреплять файлы к сообщениям
Вы не можете скачивать файлы