Важное объявление!
У Нас Все раздачи мультитрекерные, при нуле пиров в релизах, можете смело вставать на закачку!
 
Автор Сообщение

HUNTER

Стаж:
4 года 4 месяца
Сообщений:
56842

Репутация: 101

[+] [-]
Вне форума [Профиль] [ЛС]

Битва за ресторан / The Restaurant
Страна: Великобритания
Тип раздаваемого материала: реалити
Продолжительность: ~ 59 мин. на эпизод
Год выпуска: 2007
Язык: Русский
Перевод: Профессиональный (двухголосый)
Описание: Девять пар из Англии, мечтавших открыть собственный ресторан, попробуют осуществить свою мечту. Победителей и проигравших выбирает один из лучших рестораторов Британии Реймонд Бланд.
На время игры каждой паре будет выделен свой ресторан. В непростых и, порой, неожиданных испытаниях, пройдя через бурю эмоций, участники должны доказать, что именно их ресторан лучший. Каждую неделю из битвы за ресторан будет выбывать одна пара. Каждую неделю чья-то мечта будет умирать, пока в жёсткой и драматичной борьбе не останется одна пара, которая получит свой собственный ресторан.
Доп. информация: Автор рипа: AlexPAINter
Качество: SATRip
Формат: AVI
Видео кодек: XviD
Аудио кодек: MP3
Видео: XVID, 704x448, ~1130Kbps, 25fps
Аудио: MP3, 160Kbps, 48000Hz, 2ch

Restoran1_01.avi.MediaInfo

General
Complete name : E:\Serial\Битва за ресторан\Restoran1_01.avi
Format : AVI
Format/Info : Audio Video Interleave
File size : 551 MiB
Duration : 59mn 23s
Overall bit rate : 1 298 Kbps
Movie name : Битва за ресторан / The Restaurant (2007) Сезон 01, Часть 01
Encoded by : ©2013 by AlexPAINter
Genre : развлекательный
Subject : DVBRip / Телекафе / 2013.03.22
Law rating : G / без ограничений
Recorded date : 2013.03.22
Writing application : AVISynth 2.58 / VirtualDubMod 1.5.10.3
Original source form/Name : телепередача
Video
ID : 0
Format : MPEG-4 Visual
Format profile : Advanced Simple@L5
Format settings, BVOP : 1
Format settings, QPel : No
Format settings, GMC : No warppoints
Format settings, Matrix : Default (H.263)
Codec ID : XVID
Codec ID/Hint : XviD
Duration : 59mn 23s
Bit rate : 1 128 Kbps
Width : 704 pixels
Height : 448 pixels
Display aspect ratio : 1.571
Frame rate : 25.000 fps
Color space : YUV
Chroma subsampling : 4:2:0
Bit depth : 8 bits
Scan type : Progressive
Compression mode : Lossy
Bits/(Pixel*Frame) : 0.143
Stream size : 479 MiB (87%)
Writing library : XviD 1.2.1 (UTC 2008-12-04)
Audio
ID : 1
Format : MPEG Audio
Format version : Version 1
Format profile : Layer 3
Mode : Joint stereo
Mode extension : MS Stereo
Codec ID : 55
Codec ID/Hint : MP3
Duration : 59mn 23s
Bit rate mode : Constant
Bit rate : 160 Kbps
Channel(s) : 2 channels
Sampling rate : 48.0 KHz
Compression mode : Lossy
Stream size : 68.0 MiB (12%)
Alignment : Aligned on interleaves
Interleave, duration : 40 ms (1.00 video frame)
Interleave, preload duration : 504 ms
Writing library : LAME3.99r
Encoding settings : -m j -V 4 -q 2 -lowpass 17.5 -b 160
Language : Русский

Скриншоты


_________________
Показать сообщения:    

Текущее время: Сегодня 11:04

Часовой пояс: GMT



Вы не можете начинать темы
Вы не можете отвечать на сообщения
Вы не можете редактировать свои сообщения
Вы не можете удалять свои сообщения
Вы не можете голосовать в опросах
Вы не можете прикреплять файлы к сообщениям
Вы не можете скачивать файлы