Важное объявление!
У Нас Все раздачи мультитрекерные, при нуле пиров в релизах, можете смело вставать на закачку!
 
Автор Сообщение

HUNTER

Стаж:
4 года 4 месяца
Сообщений:
56734

Репутация: 101

[+] [-]
Вне форума [Профиль] [ЛС]

Билли - две шляпы / Billy Two Hats
Страна: США
Жанр: вестерн
Год выпуска: 1974
Продолжительность: 01:35:42
Перевод: Профессиональный (двухголосый закадровый) НТВ+
Cубтитры: нет
Режиссер: Тед Котчефф / Ted Kotcheff
В ролях: Грегори Пек, Дези Арназ мл., Джек Уорден, Дэвид Хаддлстон, Сиан Барбара Аллен, Джон Пирс, Доун Литтл Скай, Винс Ст. Кир
Описание: Шотландец и молодой индеец-полукровка (Билли-Две Шляпы, потому что его белый отец был влиятельным человеком) совершают ограбление, во время которого произошло неумышленное убийство, а добыча составила только 420 долларов. Они уходят, но суровый шотландец получает пулю из ружья для охоты на бизонов. Парню делает грубые носилки и привязывает их к лошади. Они останавливаются в доме старого ранчера с молодой женой, которую он купил за 100 долларов в Сент-Луисе.
Сэмпл: http://rusfolder.com/42347899

Тип релиза: HDTV 1080i
Контейнер: TS
Видео: AVC/H.264, PAL, 1920х1080 (16:9), 25 fps, 6207 Kbps
Аудио: русский, MP-2, 48000 Hz, 192 Кбит/сек, 2 ch

MediaInfo

Общее
Идентификатор : 1 (0x1)
Полное имя : D:\Билли - две шляпы.ts
Формат : MPEG-TS
Размер файла : 4,44 Гбайт
Продолжительность : 1 ч. 35 м.
Режим общего битрейта : Переменный
Общий поток : 6644 Кбит/сек
Видео
Идентификатор : 3731 (0xE93)
Идентификатор меню : 1 (0x1)
Формат : AVC
Формат/Информация : Advanced Video Codec
Профиль формата : High@L4.1
Параметр CABAC формата : Да
Параметр ReFrames формата : 3 кадра
Идентификатор кодека : 27
Продолжительность : 1 ч. 35 м.
Вид битрейта : Постоянный
Битрейт : 6207 Кбит/сек
Ширина : 1920 пикселей
Высота : 1080 пикселей
Соотношение сторон : 16:9
Частота кадров : 25,000 кадров/сек
Стандарт вещания : PAL
Цветовое пространство : YUV
Субдискретизация насыщенности : 4:2:0
Битовая глубина : 8 бит
Тип развёртки : Чересстрочная
Порядок развёртки : Верхнее поле первое
Бит/(Пиксели*Кадры) : 0.120
Размер потока : 4,09 Гбайт (92%)
Основные цвета : BT.709
Характеристики трансфера : BT.709
Коэффициенты матрицы : BT.709
Аудио
Идентификатор : 3732 (0xE94)
Идентификатор меню : 1 (0x1)
Формат : MPEG Audio
Версия формата : Version 1
Профиль формата : Layer 2
Идентификатор кодека : 3
Продолжительность : 1 ч. 35 м.
Вид битрейта : Постоянный
Битрейт : 192 Кбит/сек
Каналы : 2 канала
Частота : 48,0 КГц
Метод сжатия : С потерями
Размер потока : 131 Мбайт (3%)
Язык : Russian

Скриншот с названием фильма

Скриншоты


_________________
Показать сообщения:    

Текущее время: Сегодня 10:12

Часовой пояс: GMT



Вы не можете начинать темы
Вы не можете отвечать на сообщения
Вы не можете редактировать свои сообщения
Вы не можете удалять свои сообщения
Вы не можете голосовать в опросах
Вы не можете прикреплять файлы к сообщениям
Вы не можете скачивать файлы