Важное объявление!
У Нас Все раздачи мультитрекерные, при нуле пиров в релизах, можете смело вставать на закачку!
 
Автор Сообщение

HUNTER

Стаж:
4 года 4 месяца
Сообщений:
56808

Репутация: 101

[+] [-]
Вне форума [Профиль] [ЛС]

Билет на Vegas«Кто же сорвет джек-пот?»-
Страна: Россия, США
Жанр: комедия, приключения
Год выпуска: 2013
Продолжительность: 01:29:37-Перевод: Не требуется
Cубтитры: English-Режиссер: Гор Киракосян
В ролях: Михаил Галустян, Ингрид Олеринская, Иван Стебунов, Владимир Яглыч, Наталья Ноздрина, Дэнни Трехо, Олег Тактаров, Виталий Хаев, Ким Уитли, Гильермо Диас-Описание: На молодую парочку, Макса и Лизу, сваливается удача: они становятся победителями лотереи с выигрышем в пять миллионов долларов! Но получить деньги можно только на торжественной церемонии в столице порока, азартных игр и безудержного веселья, Лас Вегасе…
Счастливчики не подозревают, что на большой куш есть и другие претенденты. Оказавшись в Америке, они попадают на крючок очень опасного, но невероятно обаятельного мошенника Гарика, вылитого Элвиса Пресли.
Кто же сорвет джек-пот?-IMDB | КиноПоиск | Сэмпл-Качество видео: BDRip 720p
Формат видео: MKV-Видео: 1280x534 at 24.000 fps (True24p), x264@L4.1, 2pass, ~5000 kbps avg
Аудио: 48 kHz, DTS, 3/2 (L,C,R,l,r) + LFE ch, ~1510.00 kbps avg | Не требуется-Формат субтитров: softsub (*.srt)
Навигация по главам: Присутствует-

MediaInfo

General
Unique ID : 199790800694212769571790459789766731366 (0x964E4EFE3F5AC91A8A5F355000F2A666)
Complete name : D:\Фильмы\Bilet.na.Vegas.2012.720p.Blu-Ray.Rus.HDCLUB.mkv
Format : Matroska
Format version : Version 2
File size : 4.07 GiB
Duration : 1h 29mn
Overall bit rate : 6 506 Kbps
Encoded date : UTC 2013-02-15 13:04:03
Writing application : mkvmerge v5.7.0 ('The Whirlwind') built on Jul 8 2012 20:08:51
Writing library : libebml v1.2.3 + libmatroska v1.3.0
Video
ID : 1
Format : AVC
Format/Info : Advanced Video Codec
Format profile : High@L4.1
Format settings, CABAC : Yes
Format settings, ReFrames : 12 frames
Codec ID : V_MPEG4/ISO/AVC
Duration : 1h 29mn
Bit rate : 5 000 Kbps
Width : 1 280 pixels
Height : 534 pixels
Display aspect ratio : 2.40:1
Frame rate mode : Constant
Frame rate : 24.000 fps
Color space : YUV
Chroma subsampling : 4:2:0
Bit depth : 8 bits
Scan type : Progressive
Bits/(Pixel*Frame) : 0.305
Stream size : 3.05 GiB (75%)
Writing library : x264 core 129 r2245 bc13772
Encoding settings : cabac=1 / ref=12 / deblock=1:-3:-3 / analyse=0x3:0x113 / me=umh / subme=11 / psy=1 / psy_rd=1.05:0.00 / mixed_ref=1 / me_range=24 / chroma_me=1 / trellis=2 / 8x8dct=1 / cqm=0 / deadzone=21,11 / fast_pskip=0 / chroma_qp_offset=-2 / threads=12 / lookahead_threads=2 / sliced_threads=0 / nr=0 / decimate=1 / interlaced=0 / bluray_compat=0 / constrained_intra=0 / bframes=9 / b_pyramid=2 / b_adapt=2 / b_bias=0 / direct=3 / weightb=1 / open_gop=0 / weightp=2 / keyint=250 / keyint_min=25 / scenecut=40 / intra_refresh=0 / rc_lookahead=40 / rc=2pass / mbtree=1 / bitrate=5000 / ratetol=1.0 / qcomp=0.70 / qpmin=0 / qpmax=69 / qpstep=4 / cplxblur=20.0 / qblur=0.5 / vbv_maxrate=50000 / vbv_bufsize=62500 / nal_hrd=none / ip_ratio=1.30 / aq=1:1.00
Language : English
Default : Yes
Forced : No
Audio
ID : 2
Format : DTS
Format/Info : Digital Theater Systems
Mode : 16
Format settings, Endianness : Big
Codec ID : A_DTS
Duration : 1h 29mn
Bit rate mode : Constant
Bit rate : 1 509 Kbps
Channel count : 6 channels
Channel positions : Front: L C R, Side: L R, LFE
Sampling rate : 48.0 KHz
Bit depth : 16 bits
Compression mode : Lossy
Stream size : 967 MiB (23%)
Default : Yes
Forced : No
Text
ID : 3
Format : UTF-8
Codec ID : S_TEXT/UTF8
Codec ID/Info : UTF-8 Plain Text
Language : English
Default : No
Forced : No
Menu
00:00:00.000 : :00:00:00.000
00:08:05.500 : :00:08:05.500
00:14:44.000 : :00:14:44.000
00:26:09.875 : :00:26:09.875
00:30:14.667 : :00:30:14.667
00:39:56.042 : :00:39:56.042
00:47:11.208 : :00:47:11.208
00:55:43.708 : :00:55:43.708
01:03:19.458 : :01:03:19.458
01:09:52.208 : :01:09:52.208
01:13:47.708 : :01:13:47.708
01:17:54.375 : :01:17:54.375

Дополнительно

Рип от madoff

Скриншоты


_________________
Показать сообщения:    

Текущее время: Сегодня 10:04

Часовой пояс: GMT



Вы не можете начинать темы
Вы не можете отвечать на сообщения
Вы не можете редактировать свои сообщения
Вы не можете удалять свои сообщения
Вы не можете голосовать в опросах
Вы не можете прикреплять файлы к сообщениям
Вы не можете скачивать файлы