Важное объявление!
У Нас Все раздачи мультитрекерные, при нуле пиров в релизах, можете смело вставать на закачку!
 
Автор Сообщение

Vanya_o3

[Профиль] [ЛС]

Билет на Vegas
Жанр: комедия, приключения
Год выпуска: 2012
Продолжительность: 01:29:37
Режиссёр: Гор Киракосян
В ролях: Иван Стебунов, Ингрид Олеринская, Владимир Яглыч, Наталья Ноздрина, Михаил Галустян, Дэнни Трэхо, Олег Тактаров, Виталий Хаев, Ирина Бякова, Годфри, Гильермо Диаз, Ким Уитли, Кристофер Робин Миллер, Александр Горшков, Владимир Сычёв, Каро Киракосян, Максим Артамонов, Евгений Айвазян, Алексей Потапкин, Роберт Нэш
Описание: На молодую парочку, Макса и Лизу, сваливается удача: они становятся победителями лотереи с выигрышем в пять миллионов долларов! Но получить деньги можно только на торжественной церемонии в столице порока, азартных игр и безудержного веселья - Лас-Вегасе…
Доп. информация:

Качество видео: BDRip
Формат видео: AVI
Видео: 720x304 (2.35:1), 24 fps, XviD 64, 1029 Kbps, 0.196 bpp
Аудио: МР3, 48 kHz, 2 ch (stereo), 128 kbps, CBR

MediaInfo

Complete name : Bilet.na.Vegas.2012.O.BDRip.745MB_[Youtracker]_by_avproh.avi
Format : AVI
Format/Info : Audio Video Interleave
File size : 748 MiB
Duration : 1h 29mn
Overall bit rate : 1 167 Kbps
Writing application : VirtualDubModRus 1.5.10.2 (build 2542/release)
Writing library : VirtualDubMod build 2542/release
Video
ID : 0
Format : MPEG-4 Visual
Format profile : Advanced Simple@L5
Format settings, BVOP : 1
Format settings, QPel : No
Format settings, GMC : No warppoints
Format settings, Matrix : Custom
Codec ID : XVID
Codec ID/Hint : XviD
Duration : 1h 29mn
Bit rate : 1 029 Kbps
Width : 720 pixels
Height : 304 pixels
Display aspect ratio : 2.35:1
Frame rate : 24.000 fps
Color space : YUV
Chroma subsampling : 4:2:0
Bit depth : 8 bits
Scan type : Progressive
Compression mode : Lossy
Bits/(Pixel*Frame) : 0.196
Stream size : 660 MiB (88%)
Writing library : XviD 64
Audio
ID : 1
Format : MPEG Audio
Format version : Version 1
Format profile : Layer 3
Mode : Joint stereo
Mode extension : MS Stereo
Codec ID : 55
Codec ID/Hint : MP3
Duration : 1h 29mn
Bit rate mode : Constant
Bit rate : 128 Kbps
Channel(s) : 2 channels
Sampling rate : 48.0 KHz
Compression mode : Lossy
Stream size : 82.1 MiB (11%)
Alignment : Aligned on interleaves
Interleave, duration : 42 ms (1.00 video frame)
Interleave, preload duration : 504 ms

Скриншот c названием фильма

Скриншоты

 
Показать сообщения:    

Текущее время: Сегодня 12:33

Часовой пояс: GMT



Вы не можете начинать темы
Вы не можете отвечать на сообщения
Вы не можете редактировать свои сообщения
Вы не можете удалять свои сообщения
Вы не можете голосовать в опросах
Вы не можете прикреплять файлы к сообщениям
Вы не можете скачивать файлы
Наши партнеры: интернет магазин Ивановского трикотажа textilla.ru