Важное объявление!
У Нас Все раздачи мультитрекерные, при нуле пиров в релизах, можете смело вставать на закачку!
 
Автор Сообщение

HUNTER

Стаж:
4 года 4 месяца
Сообщений:
56808

Репутация: 101

[+] [-]
Вне форума [Профиль] [ЛС]

Биг-Сюр / Big Sur
Страна: США
Жанр: драма
Год выпуска: 2013
Продолжительность: 01:21:16
Перевод: Одноголосый закадровый Василий Кошкин
Cубтитры: русские, английские
Оригинальная аудиодорожка: английский
Режиссер: Майкл Полиш / Michael Polish
В ролях: Жан-Марк Барр, Кейт Босворт, Джош Лукас, Энтони Эдвардс, Бальтазар Гетти, Патрик Фишлер, Стана Катич, Генри Томас, Джон Робинсон, Рада Митчелл
Описание: Неожиданная слава и саморазрушающий образ жизни захватили сознание и тело писателя Джека Керуака в следствии беспрецедентного успеха его новаторского романа («На Дороге»). Когда-то красивый литературный диссидент и герой поколения битников, теперь Керуак, разрушенный алкоголем и наркотиками, видит только остаток самого себя. Выглядящий старше своих лет и измученный неуверенностью в себе, подвергая сомнению свой талант и веру, он переезжает из Нью-Йорка в Калифорнию в поисках спасения и селится в прибрежном коттедже в малонаселенном районе под названием Биг-Сюр. Что происходит с ним в эти три роковые недели августа 1960 года?
В то время как Керуак находит красоту и восторг в местных окрестностях, его психика оказывается не способной противостоять его собственным демонам. Внутренний конфликт приводит к острым разногласиям сознания, паранойи, белой горячки, страданию и безумию. Его отчаяние достигает высшей точки в интенсивном, характеризующемся галлюцинациями расстройстве, но двойственность его природы снова сыграет с ним в игру и из темных глубин его сознания, пусть на мгновение, но появится капелька покоя и оптимизма.
Сэмпл: http://multi-up.com/987240
Качество видео: WEB-DL 720p
Формат видео: MKV
Видео: AVC, 1280x530, 23,976 кадров/сек, 3674 Кбит/сек
Аудио: MP3 48000Hz stereo 160kbps
Аудио 2: Dolby AC3 48000Hz 6ch 384kbps
Формат субтитров: softsub (SRT)

MediaInfo

Format : Matroska
Format version : Version 4 / Version 2
File size : 2.44 GiB
Duration : 1h 21mn
Overall bit rate : 4 304 Kbps
Encoded date : UTC 2014-07-18 12:02:10
Writing application : mkvmerge v6.8.0 ('Theme for Great Cities') 64bit
built on Mar 2 2014 21:34:26
Writing library : libebml v1.3.0 + libmatroska v1.4.1
Video
ID : 1
Format : AVC
Format/Info : Advanced Video Codec
Format profile : Main@L3.1
Format settings, CABAC : No
Format settings, ReFrames : 2 frames
Codec ID : V_MPEG4/ISO/AVC
Duration : 1h 21mn
Bit rate : 3 674 Kbps
Width : 1 280 pixels
Height : 530 pixels
Display aspect ratio : 2.40:1
Frame rate mode : Constant
Frame rate : 23.976 fps
Color space : YUV
Chroma subsampling : 4:2:0
Bit depth : 8 bits
Scan type : Progressive
Bits/(Pixel*Frame) : 0.226
Stream size : 2.09 GiB (85%)
Language : English
Default : Yes
Forced : No
Color primaries : BT.709
Transfer characteristics : BT.709
Matrix coefficients : BT.709
Audio #1
ID : 2
Format : MPEG Audio
Format version : Version 1
Format profile : Layer 3
Codec ID : A_MPEG/L3
Codec ID/Hint : MP3
Duration : 1h 21mn
Bit rate mode : Constant
Bit rate : 160 Kbps
Channel(s) : 2 channels
Sampling rate : 48.0 KHz
Compression mode : Lossy
Stream size : 93.0 MiB (4%)
Language : Russian
Default : Yes
Forced : No
Audio #2
ID : 3
Format : AC-3
Format/Info : Audio Coding 3
Mode extension : CM (complete main)
Format settings, Endianness : Big
Codec ID : A_AC3
Duration : 1h 21mn
Bit rate mode : Constant
Bit rate : 384 Kbps
Channel(s) : 6 channels
Channel positions : Front: L C R, Side: L R, LFE
Sampling rate : 48.0 KHz
Bit depth : 16 bits
Compression mode : Lossy
Stream size : 223 MiB (9%)
Language : English
Default : No
Forced : No
Text #1
ID : 4
Format : UTF-8
Codec ID : S_TEXT/UTF8
Codec ID/Info : UTF-8 Plain Text
Language : Russian
Default : No
Forced : No
Text #2
ID : 5
Format : UTF-8
Codec ID : S_TEXT/UTF8
Codec ID/Info : UTF-8 Plain Text
Language : English
Default : No
Forced : No
Menu
00:00:00.000 : en:1
00:04:56.000 : en:2
00:13:15.000 : en:3
00:19:57.000 : en:4
00:27:13.000 : en:5
00:32:09.000 : en:6
00:38:15.000 : en:7
00:44:16.000 : en:8
00:51:17.000 : en:9
00:56:48.000 : en:10
01:04:01.000 : en:11
01:12:12.000 : en:12

Скриншот c названием фильма

Скриншоты


_________________
Показать сообщения:    

Текущее время: Сегодня 14:45

Часовой пояс: GMT



Вы не можете начинать темы
Вы не можете отвечать на сообщения
Вы не можете редактировать свои сообщения
Вы не можете удалять свои сообщения
Вы не можете голосовать в опросах
Вы не можете прикреплять файлы к сообщениям
Вы не можете скачивать файлы