Важное объявление!
У Нас Все раздачи мультитрекерные, при нуле пиров в релизах, можете смело вставать на закачку!
 
Автор Сообщение

HUNTER

Стаж:
4 года 4 месяца
Сообщений:
56790

Репутация: 101

[+] [-]
Вне форума [Профиль] [ЛС]

Бешенство / Бешеные / Kalevet / Rabbies
Страна: Израиль
Жанр: триллер, ужасы
Год выпуска: 2010
Продолжительность: 01:31:06
Перевод: Одноголосый закадровый den904
Перевод 2: Одноголосый закадровый агент смит
Cубтитры: русские Spartak 2005
Оригинальная аудиодорожка: иврит
Режиссер: Аарон Кешелс / Aharon Keshales, Навот Папушадо / Navot Papushado
В ролях: Лиор Ашкенази, Анна Букштейн, Дани Геба, Яель Гробгалес, Генри Давид, Ран Данкер, Лиат Хар Лев
Описание: В Израиле уже давно доказали, что умеют снимать качественно кино. И это не только попсовые мелодрамы, молодежные сериалы или разного рода и года выпуска комедии (а кто же, спрашивается, как не мы, умеет так над самими собой пошутить?). Это еще и отличные документальные работы, и серьезные психологические драмы — их список приводить смысла нет..
Так вот, в 2010-м году вышел фильм Аарона Кешелса и Навот Папушадо «Kalevet — Бешенство (Бешеные) (Rabbies)«, главные роли в котором сыграли звездные израильские актеры Лиор Ашкенази и Ханна Букштейн. И как вы думаете, в каком жанре вышла сия кинокартина? Правильно, в жанре фильмов ужасов.
Сюжет, казалось бы, до банального прост и известен. Темный лес, молодая пара, случайные прохожие, полицейские и всего один-единственный маньяк-психопат, который устроит веселенькие минуты всей вышеназванной компании. Думаю, что мастодонтам и фанатам жанра «ужасы» этот фильм может и не показаться чем-то из ряда вон выходящим, но как для нашего с вами киноресурса, Еврофильма, эта картина может иметь определенный интерес — согласитесь, что вы нечасто слышали о фильмах ужасов, снятых в Израиле.
Доп. информация: Русские звуковые дорожки и субтиры взяты с этих раздач http://rutracker.org/forum/tracker.php?nm=Kalevet%202010 авторам огромное спасибо.
Оригинальный диск предоставил edus67 огромное спасибо.
За синхронизацию русских дорожек огромное спасибо Нордер
При пересборе двд были использованы программы:
PgcDemux - разделение компонентов диска на файлы
Muxman - мультиплексирование и авторинг DVD
VobBlanker - реавторинг DVD

Скрин завершения проекта

Бонусы: Трейлеры
Сэмпл: http://sendfile.su/1049452
Тип релиза: DVD9 (Custom)
Контейнер: DVD-Video
Видео: PAL 16:9 (720x576) VBR Auto Pan&Scan, Auto Letterboxed
Аудио: Russian (Dolby AC3, 192 Кбит/сек, 2 ch)
Аудио 2: Russian (Dolby AC3, 192 Кбит/сек, 2 ch)
Аудио 3: Espanol (Dolby AC3, 448 Кбит/сек, 6 ch)
Аудио 4: Hebrew (Dolby AC3, 448 Кбит/сек, 6 ch)
Формат субтитров: softsub (SRT)

DVDaInfo

Title: SAMSUNG
Size: 6.57 Gb ( 6 889 472 KBytes ) - DVD-9
Enabled regions: 1, 2, 3, 4, 5, 6, 7, 8
VTS_01 :
Play Length: 00:00:34
Video: PAL 16:9 (720x576) VBR, Auto Pan&Scan, Auto Letterboxed
VTS_02 :
Play Length: 01:31:06
Video: PAL 16:9 (720x576) VBR, Auto Pan&Scan, Auto Letterboxed
Audio:
Russian (Dolby AC3, 2 ch)
Russian (Dolby AC3, 2 ch)
Espanol (Dolby AC3, 6 ch)
Hebrew (Dolby AC3, 6 ch)
Subtitles:
Russian
Espanol
VTS_03 :
Play Length: 00:02:16
Video: PAL 16:9 (720x576) VBR, Auto Pan&Scan, Auto Letterboxed
Audio:
Espanol (Dolby AC3, 2 ch)
VTS_04 :
Play Length: 00:01:48
Video: PAL 4:3 (720x576) VBR
Audio:
Espanol (Dolby AC3, 2 ch)
VTS_05 :
Play Length: 00:00:09
Video: PAL 16:9 (720x576) VBR, Auto Pan&Scan, Auto Letterboxed
Audio:
Espanol (Dolby AC3, 2 ch)
Hebrew (Dolby AC3, 2 ch)
Subtitles:
Espanol
Not specified
Not specified
VTS_06 :
Play Length: 00:01:18
Video: PAL 4:3 (720x576) VBR
Audio:
Espanol (Dolby AC3, 2 ch)
VTS_07 :
Play Length: 00:01:54
Video: PAL 16:9 (720x576) VBR, Auto Pan&Scan, Auto Letterboxed
Audio:
Espanol (Dolby AC3, 2 ch)
Menu Video:
PAL 16:9 (720x576) VBR
Auto Pan&Scan, Auto Letterboxed
Menu Espanol Language Unit :
Root Menu

MediaInfo

Общее
Полное имя : L:\Rabbies (Kalevet)_2010\VIDEO_TS\VTS_02_1.VOB
Формат : MPEG-PS
Размер файла : 1024 Мбайт
Продолжительность : 15 м.
Режим общего битрейта : Переменный
Общий поток : 9464 Кбит/сек
Видео
Идентификатор : 224 (0xE0)
Формат : MPEG Video
Версия формата : Version 2
Профиль формата : Main@Main
Параметр BVOP формата : Да
Параметр матрицы формата : По умолчанию
Продолжительность : 15 м.
Вид битрейта : Переменный
Битрейт : 8000 Кбит/сек
Ширина : 720 пикселей
Высота : 576 пикселей
Соотношение сторон : 16:9
Частота кадров : 25,000 кадров/сек
Стандарт вещания : PAL
Цветовое пространство : YUV
Субдискретизация насыщенности : 4:2:0
Битовая глубина : 8 бит
Тип развёртки : Прогрессивная
Метод сжатия : С потерями
Бит/(Пиксели*Кадры) : 0.772
Размер потока : 865 Мбайт (84%)
Основные цвета : BT.601 PAL
Характеристики трансфера : BT.470 System B, BT.470 System G
Коэффициенты матрицы : BT.601
Аудио #1
Идентификатор : 189 (0xBD)-128 (0x80)
Формат : AC-3
Формат/Информация : Audio Coding 3
Расширение режима : CM (complete main)
Параметр Endianness формата : Big
Режим смешивания : DVD-Video
Продолжительность : 15 м.
Вид битрейта : Постоянный
Битрейт : 192 Кбит/сек
Каналы : 2 канала
Расположение каналов : Front: L R
Частота : 48,0 КГц
Битовая глубина : 16 бит
Метод сжатия : С потерями
Размер потока : 20,8 Мбайт (2%)
Аудио #2
Идентификатор : 189 (0xBD)-129 (0x81)
Формат : AC-3
Формат/Информация : Audio Coding 3
Расширение режима : CM (complete main)
Параметр Endianness формата : Big
Режим смешивания : DVD-Video
Продолжительность : 15 м.
Вид битрейта : Постоянный
Битрейт : 192 Кбит/сек
Каналы : 2 канала
Расположение каналов : Front: L R
Частота : 48,0 КГц
Битовая глубина : 16 бит
Метод сжатия : С потерями
Размер потока : 20,8 Мбайт (2%)
Аудио #3
Идентификатор : 189 (0xBD)-130 (0x82)
Формат : AC-3
Формат/Информация : Audio Coding 3
Расширение режима : CM (complete main)
Параметр Endianness формата : Big
Режим смешивания : DVD-Video
Продолжительность : 15 м.
Вид битрейта : Постоянный
Битрейт : 448 Кбит/сек
Каналы : 6 каналов
Расположение каналов : Front: L C R, Side: L R, LFE
Частота : 48,0 КГц
Битовая глубина : 16 бит
Метод сжатия : С потерями
Размер потока : 48,5 Мбайт (5%)
Аудио #4
Идентификатор : 189 (0xBD)-131 (0x83)
Формат : AC-3
Формат/Информация : Audio Coding 3
Расширение режима : CM (complete main)
Параметр Endianness формата : Big
Режим смешивания : DVD-Video
Продолжительность : 15 м.
Вид битрейта : Постоянный
Битрейт : 448 Кбит/сек
Каналы : 6 каналов
Расположение каналов : Front: L C R, Side: L R, LFE
Частота : 48,0 КГц
Битовая глубина : 16 бит
Метод сжатия : С потерями
Размер потока : 48,5 Мбайт (5%)
Текст #1
Идентификатор : 189 (0xBD)-32 (0x20)
Формат : RLE
Формат/Информация : Run-length encoding
Режим смешивания : DVD-Video
Текст #2
Идентификатор : 189 (0xBD)-33 (0x21)
Формат : RLE
Формат/Информация : Run-length encoding
Режим смешивания : DVD-Video
Меню

Скриншоты меню


_________________
Показать сообщения:    

Текущее время: Сегодня 18:57

Часовой пояс: GMT



Вы не можете начинать темы
Вы не можете отвечать на сообщения
Вы не можете редактировать свои сообщения
Вы не можете удалять свои сообщения
Вы не можете голосовать в опросах
Вы не можете прикреплять файлы к сообщениям
Вы не можете скачивать файлы