Важное объявление!
У Нас Все раздачи мультитрекерные, при нуле пиров в релизах, можете смело вставать на закачку!
 
Автор Сообщение

HUNTER

Стаж:
4 года 4 месяца
Сообщений:
56798

Репутация: 101

[+] [-]
Вне форума [Профиль] [ЛС]

Бесы / Demons
Страна: Россия
Жанр: Драма
Год выпуска: 2014
Продолжительность: 01:07:24
Перевод: Не требуется
Cубтитры: нет
Оригинальная аудиодорожка: русский
Режиссер: Роман Шаляпин
В ролях: Евгений Ткачук, Нина Лощинина, Александр Алябьев, Олег Соколов, Александр Сазонов, Андрей Щипанов, Евгений Матвеев, Роман Шаляпин.
Описание: Современная интерпретация произведения Фёдора Михайловича Достоевского.
Доп. информация: «Бесы» - вольное и эксцентричное прочтение романа Достоевского, созданное двумя однокурсниками, состоявшимися актерами театра и кино Романом Шаляпиным и Евгением Ткачуком. Изначально картина была задумана как памфлет в псевдодокументальном стиле. Непростой монтаж акцентирует внимание зрителя на острой актерской игре, поэтичности этой дебютной картины, заставляет вслушаться в трудности языка Достоевского. Практически идентичный перенос оригинального текста романа, построенного вокруг террористической группировки Верховенского и современность героев подчеркивают вневременность романа.
Сэмпл: http://multi-up.com/1046938
Качество видео: WEB-DL 720р
Формат видео: MKV
Видео: MPEG4 Video (H264), 1280x692, 24fps 3 856 Kbps
Аудио: Dolby AC3, 48000Hz 384kbps 6ch, Language: Russian

MediaInfo

General
Unique ID : 173651060701656774002717809954814105266 (0x82A3FA4F00CF712BA68C08D90B7716B2)
Complete name : C:\Users\user\Desktop\Demons.2014.WEB-DL.720p.mkv
Format : Matroska
Format version : Version 4 / Version 2
File size : 2.45 GiB
Duration : 1h 7mn
Overall bit rate : 4 326 Kbps
Encoded date : UTC 2015-05-03 09:50:05
Writing application : mkvmerge v6.9.1 ('Blue Panther') 64bit built on Apr 18 2014 18:23:38
Writing library : libebml v1.3.0 + libmatroska v1.4.1
Video
ID : 1
Format : AVC
Format/Info : Advanced Video Codec
Format profile : High@L3.1
Format settings, CABAC : No
Format settings, ReFrames : 2 frames
Codec ID : V_MPEG4/ISO/AVC
Duration : 1h 7mn
Bit rate : 3 856 Kbps
Width : 1 280 pixels
Height : 692 pixels
Display aspect ratio : 1.85:1
Frame rate mode : Constant
Frame rate : 24.000 fps
Color space : YUV
Chroma subsampling : 4:2:0
Bit depth : 8 bits
Scan type : Progressive
Bits/(Pixel*Frame) : 0.181
Stream size : 2.22 GiB (91%)
Language : English
Default : Yes
Forced : No
Color primaries : BT.709
Transfer characteristics : BT.709
Matrix coefficients : BT.709
Audio
ID : 2
Format : AC-3
Format/Info : Audio Coding 3
Mode extension : CM (complete main)
Format settings, Endianness : Big
Codec ID : A_AC3
Duration : 1h 7mn
Bit rate mode : Constant
Bit rate : 384 Kbps
Channel(s) : 6 channels
Channel positions : Front: L C R, Side: L R, LFE
Sampling rate : 48.0 KHz
Bit depth : 16 bits
Compression mode : Lossy
Stream size : 185 MiB (9%)
Language : Russian
Default : Yes
Forced : No

Скриншот c названием фильма

Скриншоты



Скачавших прошу не покидать данную раздачу. Спасибо за внимание.

_________________
Показать сообщения:    

Текущее время: Сегодня 00:39

Часовой пояс: GMT



Вы не можете начинать темы
Вы не можете отвечать на сообщения
Вы не можете редактировать свои сообщения
Вы не можете удалять свои сообщения
Вы не можете голосовать в опросах
Вы не можете прикреплять файлы к сообщениям
Вы не можете скачивать файлы