Важное объявление!
У Нас Все раздачи мультитрекерные, при нуле пиров в релизах, можете смело вставать на закачку!
 
Автор Сообщение

HUNTER

Стаж:
4 года 4 месяца
Сообщений:
56755

Репутация: 101

[+] [-]
Вне форума [Профиль] [ЛС]

Береговой плацдарм / Beachhead-
Страна: США
Студия: Aubrey Schenck Productions, United Artists
Жанр: военная драма
Год выпуска: 1954
Продолжительность: 01:26:13
Перевод: Профессиональный (двухголосый закадровый) НТВ+
Cубтитры: нет
Оригинальная аудиодорожка: английский-Режиссер: Стюарт Хайслер / Stuart Heisler
В ролях: Тони Кёртис (Tony Curtis), Фрэнк Лавджой (Frank Lovejoy), Мэри Мэрфи (Mary Murphy)-Описание: Вторая мировая война. На занятый японцами остров высаживается десант США. Его цель — разбиться на несколько боевых групп и найти французского ученого, который владеет информацией о японских минных полях. Взвод Сержанта Флетчера находит среди джунглей острова профессора Бушара и его перепуганную дочь Нину в разоренном японцами доме.
Японцы, поняв, что на их территории находятся Американские солдаты, бросаются в погоню. Взвод берут в окружение, из которого смогут вырваться только трое: солдат Барк, сержант Флетчер и дочь профессора.-Релиз: -Семпл: скачать-Тип релиза: HDTV 1080i
Контейнер: TS
Видео: 1920x1080i (16:9), 25.000 fps, AVC, ~8439 Kbps, 0.163 bits/pixel
Аудио 1: Russian, 48.0 KHz, MPEG-1 Audio layer 2, 2 ch, 192 Kbps
Аудио 2: English, 48.0 KHz, MPEG-1 Audio layer 2, 2 ch, 192 Kbps

MediaInfo

General
ID : 1 (0x1)
Complete name : Y:\Recordings\Beachhead 1954 MGMHD 1080i DVO NTV+ rus.eng.ts
Format : MPEG-TS
File size : 5.59 GiB
Duration : 1h 26mn
Overall bit rate mode : Variable
Overall bit rate : 9 286 Kbps
Maximum Overall bit rate : 35.5 Mbps
Video
ID : 4113 (0x1011)
Menu ID : 1 (0x1)
Format : AVC
Format/Info : Advanced Video Codec
Format profile : High@L4.0
Format settings, CABAC : Yes
Format settings, ReFrames : 4 frames
Codec ID : 27
Duration : 1h 26mn
Bit rate mode : Variable
Bit rate : 8 439 Kbps
Maximum bit rate : 40.0 Mbps
Width : 1 920 pixels
Height : 1 080 pixels
Display aspect ratio : 16:9
Frame rate : 25.000 fps
Standard : Component
Color space : YUV
Chroma subsampling : 4:2:0
Bit depth : 8 bits
Scan type : Interlaced
Scan order : Top Field First
Bits/(Pixel*Frame) : 0.163
Stream size : 5.08 GiB (91%)
Color primaries : BT.709
Transfer characteristics : BT.709
Matrix coefficients : BT.709
Audio #1
ID : 4352 (0x1100)
Menu ID : 1 (0x1)
Format : MPEG Audio
Format version : Version 1
Format profile : Layer 2
Codec ID : 4
Duration : 1h 26mn
Bit rate mode : Constant
Bit rate : 192 Kbps
Channel(s) : 2 channels
Sampling rate : 48.0 KHz
Compression mode : Lossy
Stream size : 118 MiB (2%)
Language : Russian
Audio #2
ID : 4353 (0x1101)
Menu ID : 1 (0x1)
Format : MPEG Audio
Format version : Version 1
Format profile : Layer 2
Codec ID : 4
Duration : 1h 26mn
Bit rate mode : Constant
Bit rate : 192 Kbps
Channel(s) : 2 channels
Sampling rate : 48.0 KHz
Compression mode : Lossy
Stream size : 118 MiB (2%)
Language : English

Скриншоты


_________________
Показать сообщения:    

Текущее время: Сегодня 17:41

Часовой пояс: GMT



Вы не можете начинать темы
Вы не можете отвечать на сообщения
Вы не можете редактировать свои сообщения
Вы не можете удалять свои сообщения
Вы не можете голосовать в опросах
Вы не можете прикреплять файлы к сообщениям
Вы не можете скачивать файлы