Важное объявление!
У Нас Все раздачи мультитрекерные, при нуле пиров в релизах, можете смело вставать на закачку!
 
Автор Сообщение

димитри37

Стаж:
3 года 9 месяцев
Сообщений:
1237

Репутация: 127

[+] [-]
Вне форума [Профиль] [ЛС]

Берега
Год выпуска: 2012
Производство: Россия, KoBura Film
Жанр: Боевик, мелодрама
Продолжительность: 8 х ~00:45:00
Субтитры: нет
Режиссёр: Богдан Дробязко
В ролях: Александр Носик, Екатерина Вуличенко, Елена Захарова, Ян Цапник, Сергей Баталов, Олег Комаров (II), Ксения Буравская, Сергей Дорогов, Владимир Носик, Леонид Громов, Дмитрий Калистратов, Александр Кузнецов, Андрей Фиронов, Алексей Симонов, Анастасия Дубровина, Лилия Разакова, Виктория Куликова, Константин Удалов и другие.
Описание: Российско-финская граница. Наши дни. Из Петербурга приезжает новый начальник погранзаставы, майор Ковальский (Александр Носик). С ним вместе приезжает и его сын Сергей. Слишком вольные порядки на заставе - свиньи-контрабандисты, перевозящие на себе самогон, почти соседская дружба с финнами и панибратские отношения в казарме – сразу же вызывают негодование майора. Ковальский знакомится с местными - с красавицей-вдовой Серафимой (Екатерина Вуличенко), семейством свиноводов Завьяловых, старцем Доминианом (Владимир Носик), прапорщиком и активно подсиживающим Ковальского особистом. Но жизнь в этом, на первый взгляд, скучном месте не обещает быть спокойной: опасные приключения начинают происходить с главным героем в первый же день службы. Вынужденная командировка окажется судьбоносной и для личной жизни майора, ведь именно здесь он встретит новую любовь.
Качество: HDTVRip
Формат: AVI
Видео кодек: XviD
Аудио кодек: AC3
Видео: 720x400 (1.80:1), 25 fps, XviD build 50, 1556 kbps avg, 0.22 bit/pixel
Аудио: AC3 Dolby Digital, 48 kHz, 2/0 (L,R) ch, 192.00 kbps avg

MI

Общее
Полное имя : C:\Фильмы\Берега.2012.XviD.HDTVRip\Берега.01.2012.XviD.HDTVRip.avi
Формат : AVI
Формат/Информация : Audio Video Interleave
Размер файла : 551 Мбайт
Продолжительность : 43 м.
Общий поток : 1759 Кбит/сек
Программа кодирования : VirtualDubMod 1.5.10.3 | www.virtualdub-fr.org || (build 2550/release)
Библиотека кодирования : VirtualDubMod build 2550/release
Видео
Идентификатор : 0
Формат : MPEG-4 Visual
Профиль формата : Advanced Simple@L5
Параметр BVOP формата : 1
Параметр QPel формата : Нет
Параметр GMC формата : Без точки перехода
Параметр матрицы формата : Default (H.263)
Идентификатор кодека : XVID
Идентификатор кодека/Подсказка : XviD
Продолжительность : 43 м.
Битрейт : 1557 Кбит/сек
Ширина : 720 пикселей
Высота : 400 пикселей
Соотношение сторон : 16:9
Частота кадров : 25,000 кадров/сек
Цветовое пространство : YUV
Субдискретизация насыщенности : 4:2:0
Битовая глубина : 8 бит
Тип развёртки : Прогрессивная
Метод сжатия : С потерями
Бит/(Пиксели*Кадры) : 0.216
Размер потока : 488 Мбайт (89%)
Библиотека кодирования : XviD 1.2.1 (UTC 2008-12-04)
Аудио
Идентификатор : 1
Формат : AC-3
Формат/Информация : Audio Coding 3
Расширение режима : CM (complete main)
Параметр Endianness формата : Big
Идентификатор кодека : 2000
Продолжительность : 43 м.
Вид битрейта : Постоянный
Битрейт : 192 Кбит/сек
Каналы : 2 канала
Расположение каналов : Front: L R
Частота : 48,0 КГц
Битовая глубина : 16 бит
Метод сжатия : С потерями
Размер потока : 60,2 Мбайт (11%)
Выравнивание : Разделение по промежуткам
Продолжительность промежутка : 40 мс. (1,00 видеокадр)
Время предзагрузки промежутка : 500 мс.
-
Показать сообщения:    

Текущее время: Сегодня 03:18

Часовой пояс: GMT



Вы не можете начинать темы
Вы не можете отвечать на сообщения
Вы не можете редактировать свои сообщения
Вы не можете удалять свои сообщения
Вы не можете голосовать в опросах
Вы не можете прикреплять файлы к сообщениям
Вы не можете скачивать файлы
Наши партнеры: интернет магазин Ивановского трикотажа textilla.ru