Важное объявление!
У Нас Все раздачи мультитрекерные, при нуле пиров в релизах, можете смело вставать на закачку!
 
Автор Сообщение

Shalun

Стаж:
4 года 4 месяца
Сообщений:
802

Репутация: 123

[+] [-]
Вне форума [Профиль] [ЛС]

-Белый лебедь / Assassins Run-Информация о фильме
Название: Белый лебедь
Оригинальное название: Assassins Run
Год выхода: 2013
Жанр: боевик, триллер, криминал
Режиссер: Роберт Кромби
В ролях: Кристиан Слэйтер, Софья Ская, Коул Хаузер, Энгус МакФадьен, Марианна Халифман, Светлана Цвиченко, Александр Рапопорт, ...-
О фильме: История прима-балерины, ее американского мужа и их маленькой дочери Нины. «Человек без лица», маньяк-психопат Роман, старается разрушить счастливую жизнь семьи. Герой Слейтера погибает при таинственных обстоятельствах. Майю, красивую русскую балерину, начинает преследовать мафия. Коррумпированные полицейские сажают девушку в тюрьму, а когда приходит время освобождения, ей предстоит вступить в борьбу за жизнь похищенной дочери.-
Файл-
Качество: WEB-DLRip
Видео: 720x400 (1.80:1), 23.976 fps, XviD build 50 ~2021 kbps avg, 0.29 bit/pixel
Аудио: 48 kHz, AC3 Dolby Digital, 2/0 (L,R) ch, ~192 kbps
Продолжительность: 01:28:07
Перевод: Любительский (двухголосый)
-

MediaInfo

General
Complete name : D:КиноAssassins.Run.2013.WEB-DLRip.avi
Format : AVI
Format/Info : Audio Video Interleave
File size : 1.37 GiB
Duration : 1h 28mn
Overall bit rate : 2 223 Kbps
Writing application : VirtualDubMod 1.5.10.3 | www.virtualdub-fr.org || (build 2550/release)
Writing library : VirtualDubMod build 2550/release
Video
ID : 0
Format : MPEG-4 Visual
Format profile : Advanced Simple@L5
Format settings, BVOP : 2
Format settings, QPel : No
Format settings, GMC : No warppoints
Format settings, Matrix : Default (MPEG)
Codec ID : XVID
Codec ID/Hint : XviD
Duration : 1h 28mn
Bit rate : 2 022 Kbps
Width : 720 pixels
Height : 400 pixels
Display aspect ratio : 16:9
Frame rate : 23.976 fps
Color space : YUV
Chroma subsampling : 4:2:0
Bit depth : 8 bits
Scan type : Progressive
Compression mode : Lossy
Bits/(Pixel*Frame) : 0.293
Stream size : 1.24 GiB (91%)
Writing library : XviD 1.2.1 (UTC 2008-12-04)
Audio
ID : 1
Format : AC-3
Format/Info : Audio Coding 3
Mode extension : CM (complete main)
Format settings, Endianness : Big
Codec ID : 2000
Duration : 1h 28mn
Bit rate mode : Constant
Bit rate : 192 Kbps
Channel(s) : 2 channels
Channel positions : Front: L R
Sampling rate : 48.0 KHz
Bit depth : 16 bits
Compression mode : Lossy
Delay relative to video : 29ms
Stream size : 121 MiB (9%)
Alignment : Split accross interleaves
Interleave, duration : 42 ms (1.00 video frame)
Interleave, preload duration : 500 ms

Скриншоты






_________________
Показать сообщения:    

Текущее время: Сегодня 04:51

Часовой пояс: GMT



Вы не можете начинать темы
Вы не можете отвечать на сообщения
Вы не можете редактировать свои сообщения
Вы не можете удалять свои сообщения
Вы не можете голосовать в опросах
Вы не можете прикреплять файлы к сообщениям
Вы не можете скачивать файлы