Важное объявление!
У Нас Все раздачи мультитрекерные, при нуле пиров в релизах, можете смело вставать на закачку!
 
Автор Сообщение

HUNTER

Стаж:
4 года 4 месяца
Сообщений:
56842

Репутация: 101

[+] [-]
Вне форума [Профиль] [ЛС]

Белый ангел / White Angel
Страна: Великобритания
Студия: Living Spirit Pictures
Жанр: триллер
Год выпуска: 1994
Продолжительность: 01:28:27
Перевод: Профессиональный (двухголосый закадровый)
Cубтитры: украинские
Оригинальная аудиодорожка: нет
Режиссер: Крис Джонс / Chris Jones
В ролях: Питер Ферт, Харриет Робинсон, Дон Хендерсон, Кэтрин Артон, Гарри Миллер, Джо Коллинз, Кэролайн Стонтон, Марк Стивенс, Сьюзанн Синклер, Саманта Норман, Джеральдин Уильямс, Мэри МакГоверн
Описание: Лондон живет в страхе перед таинственным "Белым Ангелом" - маньяком, убивающим женщин в белом. Эллен Картер, популярная писательница, автор криминальных бестселлеров, находится под постоянным наблюдением полиции, которая подозревает ее в убийстве мужа. А в загородном домике Эллен поселяется скромный и обаятельный дантист, мистер Стеклер, который обнаруживает странную находку...-Криминальный триллер, завоевавший призы на фестивалях приключенческих и детективных фильмов в Лондоне, Валансьене и Бургасе. Призер 37-го международного кинофестиваля в Лондоне.
Бонусы: нет
Меню: нет

Сэмпл: http://multi-up.com/990636
Тип релиза: DVD5
Контейнер: DVD-Video
Видео: PAL 4:3 (720x576(0.442)) MPEG Video, 25,000 кадр/сек, 4587 Кбит/сек
Аудио: Russian (Dolby AC3, 6ch) 448 Кбит/сек, 48,0 КГц
Аудио 2: Russian (DTS, 6ch) 768 Кбит/сек, 48,0 КГц
Формат субтитров: prerendered (DVD/IDX+SUB)

Доп. информация

Украинское издание с Амальгамовской лицензии

DVDInfo

Title:
Size: 3.63 Gb ( 3 809 956 KBytes ) - DVD-5
Enabled regions: 1, 2, 3, 4, 5, 6, 7, 8
VTS_01 :
Play Length: 01:28:27
Video: PAL 4:3 (720x576) VBR
Audio:
Russian (Dolby AC3, 6 ch)
Russian (DTS, 6 ch)
Subtitles:
Ukrainian
Menu Video:
PAL 4:3 (720x576) VBR
Auto Pan&Scan, Auto Letterboxed
Menu Language Unit :
Chapter (PTT) Menu

MediaInfo

General
Complete name : D:\news\Белый ангел\VIDEO_TS\VTS_01_1.VOB
Format : MPEG-PS
File size : 1 024 MiB
Duration : 24mn 14s
Overall bit rate : 5 907 Kbps
Video
ID : 224 (0xE0)
Format : MPEG Video
Format version : Version 2
Format profile : Main@Main
Format settings, BVOP : Yes
Format settings, Matrix : Default
Format settings, GOP : M=3, N=15
Duration : 24mn 14s
Bit rate mode : Variable
Bit rate : 4 587 Kbps
Nominal bit rate : 8 000 Kbps
Width : 720 pixels
Height : 576 pixels
Display aspect ratio : 4:3
Frame rate : 25.000 fps
Standard : PAL
Color space : YUV
Chroma subsampling : 4:2:0
Bit depth : 8 bits
Scan type : Interlaced
Scan order : Top Field First
Bits/(Pixel*Frame) : 0.442
Stream size : 795 MiB (78%)
Audio #1
ID : 128 (0x80)
Format : AC-3
Format/Info : Audio Coding 3
Mode extension : CM (complete main)
Duration : 24mn 13s
Bit rate mode : Constant
Bit rate : 448 Kbps
Channel(s) : 6 channels
Channel positions : Front: L C R, Side: L R, LFE
Sampling rate : 48.0 KHz
Video delay : 360ms
Stream size : 77.6 MiB (8%)
Audio #2
ID : 137 (0x89)
Format : DTS
Format/Info : Digital Theater Systems
Duration : 24mn 13s
Bit rate mode : Constant
Bit rate : 755 Kbps
Channel(s) : 6 channels
Channel positions : Front: L C R, Side: L R, LFE
Sampling rate : 48.0 KHz
Bit depth : 24 bits
Video delay : 360ms
Stream size : 131 MiB (13%)
Text
ID : 32 (0x20)
Format : RLE
Format/Info : Run-length encoding
Menu

Скриншоты

Постер


_________________
Показать сообщения:    

Текущее время: Сегодня 14:05

Часовой пояс: GMT



Вы не можете начинать темы
Вы не можете отвечать на сообщения
Вы не можете редактировать свои сообщения
Вы не можете удалять свои сообщения
Вы не можете голосовать в опросах
Вы не можете прикреплять файлы к сообщениям
Вы не можете скачивать файлы