Важное объявление!
У Нас Все раздачи мультитрекерные, при нуле пиров в релизах, можете смело вставать на закачку!
 
Автор Сообщение

HUNTER

Стаж:
4 года 4 месяца
Сообщений:
56829

Репутация: 101

[+] [-]
Вне форума [Профиль] [ЛС]

Белые росы
Страна: СССР
Студия: "Беларусьфильм"
Жанр: комедия
Год выпуска: 1983
Продолжительность: 01:23:36
Режиссёр: Игорь Добролюбов
В ролях: Всеволод Санаев, Николай Караченцов, Станислав Садальский, Михаил Кокшенов, Галина Польских, Борис Новиков, Наталья Харахорина, Александр Беспалый, Юлия Космачева, Стефания Станюта, Геннадий Гарбук, Ирина Егоров
Описание: В небольшой белорусской деревеньке Белые Росы живет заслуженный и уважаемый человек Федос Ходас. Он уже давно овдовел. Стали взрослыми и три его сына-погодка. И за каждого из них болит отцовское сердце, каждому старается помочь. Старший Андрей - человек основательный, но ему мешает его расчетливость. Балагур и весельчак Васька может потерять семью из-за бывшего возлюбленного его жены Маруси. Средний - Сашка - уехал на Курилы и уже 15 лет не был дома ...

Семпл: https://yadi.sk/i/uAr11bdEgQ8UZ
Качество: HDTV
Формат: TS
Видео: H264, 1920x1080 (16:9), 25 fps, 9000 kbps
Аудио: MPEG Audiо, 2 сh, 48 kHz, 224 kbps

MediaInfo

General
ID : 1 (0x1)
Complete name : G:\Белые росы. (1983)_DVB by SLuMeP.ts
Format : MPEG-TS
File size : 5.55 GiB
Duration : 1h 23mn
Overall bit rate mode : Variable
Overall bit rate : 9 501 Kbps
Video
ID : 224 (0xE0)
Menu ID : 1 (0x1)
Format : AVC
Format/Info : Advanced Video Codec
Format profile : High@L4.1
Format settings, CABAC : Yes
Format settings, ReFrames : 3 frames
Codec ID : 27
Duration : 1h 23mn
Bit rate mode : Constant
Bit rate : 9 000 Kbps
Width : 1 920 pixels
Height : 1 080 pixels
Display aspect ratio : 16:9
Frame rate : 25.000 fps
Standard : PAL
Color space : YUV
Chroma subsampling : 4:2:0
Bit depth : 8 bits
Scan type : Interlaced
Bits/(Pixel*Frame) : 0.174
Stream size : 5.14 GiB (93%)
Color primaries : BT.709
Transfer characteristics : BT.709
Matrix coefficients : BT.709
Audio
ID : 192 (0xC0)
Menu ID : 1 (0x1)
Format : MPEG Audio
Format version : Version 1
Format profile : Layer 2
Codec ID : 3
Duration : 1h 23mn
Bit rate mode : Constant
Bit rate : 224 Kbps
Channel(s) : 2 channels
Sampling rate : 48.0 KHz
Compression mode : Lossy
Delay relative to video : 40ms
Stream size : 134 MiB (2%)
Language : English

Скриншоты



_________________
Показать сообщения:    

Текущее время: Сегодня 14:53

Часовой пояс: GMT



Вы не можете начинать темы
Вы не можете отвечать на сообщения
Вы не можете редактировать свои сообщения
Вы не можете удалять свои сообщения
Вы не можете голосовать в опросах
Вы не можете прикреплять файлы к сообщениям
Вы не можете скачивать файлы