Важное объявление!
У Нас Все раздачи мультитрекерные, при нуле пиров в релизах, можете смело вставать на закачку!
 
Автор Сообщение

HUNTER

Стаж:
4 года 4 месяца
Сообщений:
56822

Репутация: 101

[+] [-]
Вне форума [Профиль] [ЛС]

-Белоснежка и семь гномов / Snow White and the Seven Dwarfs-
Страна: США
Жанр: мультфильм, мюзикл, фэнтези, мелодрама, семейный
Продолжительность: 01:23:11
Год выпуска: 1937
Перевод 01: Профессиональный (дублированный) | BD CEE
Перевод 02: Авторский (одноголосый закадровый) | Максим Ошурков
Перевод 03: Авторский (одноголосый закадровый) | Василий Горчаков (поздний)
Перевод 04: Авторский (одноголосый закадровый) | Василий Горчаков (ранний)
Перевод 05: Авторский (одноголосый закадровый) | Юрий Живов
Перевод 06: Авторский (одноголосый закадровый) | Михаил Иванов | VHS
Перевод 07: Авторский (одноголосый закадровый) | Александр Марченко | VHS
Перевод 08: Авторский (одноголосый закадровый) | Антон Алексеев | VHS
Перевод 09: Авторский (одноголосый закадровый) | Леша-прапорщик | VHS
Перевод 10: Авторский (одноголосый закадровый) | неизвестный | VHS
Перевод 11: Профессиональный (многоголосый закадровый)
Перевод 12: Профессиональный (многоголосый закадровый) New Dream Media / Позитив-Мультимедиа
Перевод 13: Профессиональный (многоголосый закадровый) Инфо-фильм
Перевод 14: Профессиональный (многоголосый закадровый) FDV
Перевод 15: Профессиональный (многоголосый закадровый) Мьюзик-трейд
Русские субтитры: есть-Режиссёр: Дэвид Хэнд / David Hand
Роли озвучивали: Рой Этвелл, Стюарт Бьюкэнэн, Адриана Каселотти, Холл Джонсон Шор, Эдди Коллинз, Пинто Колвиг, Мэрион Дарлингтон, Билли Гилберт, Отис Хэрлан, Люсиль Ла Верн-Описание: Первый полнометражный анимационный фильм Уолта Диснея "Белоснежка и семь гномов", получивший многочисленные награды и премии, завоевавший сердца нескольких поколений зрителей и по праву вошедший в новую Бриллиантовую Коллекцию Disney!
Именно с этого легендарного фильма началась великая традиция полнометражного анимационного киностудии Disney, которая каждый год дарит нам незабываемые анимационные шедевры.
"Белоснежка и семь гномов" - это экранизация знаменитой немецкой сказки братьев Гримм о Белоснежке, жившей в замке со злой мачехой-королевой, которая однажды решила погубить прелестную падчерицу, узнав от волшебного зеркальца, что Белоснежка - самая прекрасная девушка на свете. Но Белоснежка не погибла, а наоборот, встретила в лесу настоящих друзей - забавных семерых гномов: Дока, Ворчуна, Весельчака, Тихоню, Чихуна, Соню и Простака...
- -Сэмпл: http://yadi.sk/d/yLTL7a7M5c0O5-Качество: BDRip 1080p
Формат: MKV
Видео: 1448x1080 (4:3), 23.976 fps, AVC, ~6460 kbps avg
Аудио #01 Русский, 48.0 KHz, AC3, 6 ch, 640 kbps - Дубляж | BD CEE
Аудио #02 Русский, 48.0 KHz, DTS, 6 ch, 1509 kbps - Одноголосый закадровый | Максим Ошурков
Аудио #03 Русский, 48.0 KHz, DTS, 6 ch, 1509 kbps - Одноголосый закадровый | Василий Горчаков (поздний)
Аудио #04 Русский, 48.0 KHz, DTS, 6 ch, 1509 kbps - Одноголосый закадровый | Василий Горчаков (ранний)
Аудио #05 Русский, 48.0 KHz, DTS, 6 ch, 1509 kbps - Одноголосый закадровый | Юрий Живов
Аудио #06 Русский, 48.0 KHz, AC3, 1 ch, 192 kbps - Одноголосый закадровый | Михаил Иванов | VHS
Аудио #07 Русский, 48.0 KHz, AC3, 1 ch, 192 kbps - Одноголосый закадровый | Александр Марченко | VHS
Аудио #08 Русский, 48.0 KHz, AC3, 1 ch, 192 kbps - Одноголосый закадровый | Антон Алексеев | VHS
Аудио #09 Русский, 48.0 KHz, AC3, 1 ch, 192 kbps - Одноголосый закадровый | Леша-прапорщик | VHS
Аудио #10 Русский, 48.0 KHz, AC3, 1 ch, 192 kbps - Одноголосый закадровый | неизвестный | VHS
Аудио #11 Русский, 48.0 KHz, DTS, 6 ch, 1509 kbps - Многоголосый закадровый
Аудио #12 Русский, 48.0 KHz, AC3, 6 ch, 384 kbps - Многоголосый закадровый | "New Dream Media" / "Позитив-Мультимедиа"
Аудио #13 Русский, 48.0 KHz, AC3, 6 ch, 448 kbps - Многоголосый закадровый | "Инфо-фильм"
Аудио #14 Русский, 48.0 KHz, AC3, 6 ch, 384 kbps - Многоголосый закадровый | "FDV"
Аудио #15 Русский, 48.0 KHz, AC3, 2 ch, 192 kbps - Многоголосый закадровый | "Мьюзик-трейд"
Аудио #16 Українська, 48.0 KHz, AC3, 2 ch, 192 kbps - Дубляж
Аудио #17 Українська, 48.0 KHz, AC3, 1 ch, 192 kbps - Двухголосый закадровый | "Так Треба Продакшн" | VHS
Аудио #18 English, 48.0 KHz, DTS, 6 ch, 1509 kbps
Аудио #19 English, 48.0 KHz, AC3, 2 ch, 192 kbps - Commentary
Субтитры: Русские (forced), Русские, Русские (комментарии), Українські, Українські (комментарии), English, English (SDH)
-
Цитата:

  • Звуковые дорожки №2,3,5 (Ошурков, Горчаков (поздний), Живов) получены путем наложения чистых голосов на центральный канал декодированной оригинальной DTS-HD MA дорожки;
  • Спасибо multmir и GVR232 за любезно предоставленные чистые голоса: М.Ошуркова, В.Горчакова (поздний) и Ю.Живова;
  • Спасибо bora86bora за оцифровку VHS с переводами: М.Иванов, А.Марченко;
  • Спасибо серый75 за оцифровку VHS с переводом А.Алексеева;
  • Спасибо multmir за оцифровку VHS с переводом неизвестного и за Проф перевода от "Инфо-фильм";
  • Спасибо Nekontroliruemij_devil за оцифровку VHS с переводом Леши-прапорщика;
  • Спасибо master-pepper и alenavova за Проф перевода от "FDV";
  • Звуковая дорожка №11 получены путем наложения выделенных инвертированием голосов на центральный канал декодированной оригинальной DTS-HD MA дорожки;
  • Звуковые дорожки с многоголосками (дорожки №11,15) текстом перевода не отличаются. Однако, начитаны разными коллективами для разных DVD изданий;
  • Звуковые дорожки №16,17 взяты с Гуртом;
  • Огромная благодарность за помощь в создании исходного ремукса - xfiles;
  • Работа со звуком - bora86bora.

MediaInfo | x264

x264

x264 [info]: frame I:868 Avg QP:14.90 size:203918
x264 [info]: frame P:36212 Avg QP:16.98 size: 60424
x264 [info]: frame B:82589 Avg QP:19.20 size: 20156
x264 [info]: consecutive B-frames: 4.2% 4.8% 36.7% 33.0% 14.1% 5.6% 0.7% 0.5% 0.4% 0.2%
encoded 119669 frames, 4.25 fps, 6458.99 kb/s
Format : Matroska
Format version : Version 4 / Version 2
File size : 11.1 GiB
Duration : 1h 23mn
Overall bit rate : 19.1 Mbps
Movie name : Snow White and the Seven Dwarfs (1937) - Release for RuTracker
Encoded date : UTC 2013-06-08 09:51:41
Writing application : mkvmerge v6.1.0 ('Old Devil') built on Mar 2 2013 14:32:37
Writing library : libebml v1.3.0 + libmatroska v1.4.0
Video
ID : 1
Format : AVC
Format/Info : Advanced Video Codec
Format profile : High@L4.1
Format settings, CABAC : Yes
Format settings, ReFrames : 5 frames
Codec ID : V_MPEG4/ISO/AVC
Duration : 1h 23mn
Bit rate : 6 090 Kbps
Width : 1 448 pixels
Height : 1 080 pixels
Display aspect ratio : 4:3
Frame rate mode : Constant
Frame rate : 23.976 fps
Color space : YUV
Chroma subsampling : 4:2:0
Bit depth : 8 bits
Scan type : Progressive
Bits/(Pixel*Frame) : 0.162
Stream size : 3.54 GiB (32%)
Title : Snow.White.and.the.Seven.Dwarfs.1937.1080p.BluRay.Rus.Eng.ac3.dts.sub.RuTracker
Writing library : x264 core 130 r2273 b3065e6
Encoding settings : cabac=1 / ref=5 / deblock=1:-2:-2 / analyse=0x3:0x133 / me=umh / subme=11 / psy=1 / psy_rd=0.90:0.00 / mixed_ref=1 / me_range=32 / chroma_me=1 / trellis=2 / 8x8dct=1 / cqm=0 / deadzone=21,11 / fast_pskip=1 / chroma_qp_offset=-2 / threads=6 / lookahead_threads=1 / sliced_threads=0 / nr=0 / decimate=1 / interlaced=0 / bluray_compat=0 / constrained_intra=0 / bframes=9 / b_pyramid=2 / b_adapt=2 / b_bias=0 / direct=3 / weightb=1 / open_gop=0 / weightp=2 / keyint=240 / keyint_min=23 / scenecut=40 / intra_refresh=0 / rc_lookahead=60 / rc=crf / mbtree=0 / crf=17.8 / qcomp=0.60 / qpmin=0 / qpmax=69 / qpstep=4 / vbv_maxrate=50000 / vbv_bufsize=62500 / crf_max=0.0 / nal_hrd=none / ip_ratio=1.40 / pb_ratio=1.30 / aq=2:0.80
Language : English
Default : Yes
Forced : No
Audio #1
ID : 2
Format : AC-3
Format/Info : Audio Coding 3
Mode extension : CM (complete main)
Format settings, Endianness : Big
Codec ID : A_AC3
Duration : 1h 23mn
Bit rate mode : Constant
Bit rate : 640 Kbps
Channel(s) : 6 channels
Channel positions : Front: L C R, Side: L R, LFE
Sampling rate : 48.0 KHz
Bit depth : 16 bits
Compression mode : Lossy
Stream size : 381 MiB (3%)
Title : Дубляж | BD CEE
Language : Russian
Default : Yes
Forced : No
Audio #2
ID : 3
Format : DTS
Format/Info : Digital Theater Systems
Mode : 16
Format settings, Endianness : Big
Codec ID : A_DTS
Duration : 1h 23mn
Bit rate mode : Constant
Bit rate : 1 509 Kbps
Channel(s) : 6 channels
Channel positions : Front: L C R, Side: L R, LFE
Sampling rate : 48.0 KHz
Bit depth : 24 bits
Compression mode : Lossy
Stream size : 898 MiB (8%)
Title : Одноголосый закадровый | Максим Ошурков
Language : Russian
Default : No
Forced : No
Audio #3
ID : 4
Format : DTS
Format/Info : Digital Theater Systems
Mode : 16
Format settings, Endianness : Big
Codec ID : A_DTS
Duration : 1h 23mn
Bit rate mode : Constant
Bit rate : 1 509 Kbps
Channel(s) : 6 channels
Channel positions : Front: L C R, Side: L R, LFE
Sampling rate : 48.0 KHz
Bit depth : 24 bits
Compression mode : Lossy
Stream size : 898 MiB (8%)
Title : Одноголосый закадровый | Василий Горчаков (поздний)
Language : Russian
Default : No
Forced : No
Audio #4
ID : 5
Format : DTS
Format/Info : Digital Theater Systems
Mode : 16
Format settings, Endianness : Big
Codec ID : A_DTS
Duration : 1h 23mn
Bit rate mode : Constant
Bit rate : 1 510 Kbps
Channel(s) : 6 channels
Channel positions : Front: L C R, Side: L R, LFE
Sampling rate : 48.0 KHz
Bit depth : 24 bits
Compression mode : Lossy
Stream size : 898 MiB (8%)
Title : Одноголосый закадровый | Василий Горчаков (ранний)
Language : Russian
Default : No
Forced : No
Audio #5
ID : 6
Format : DTS
Format/Info : Digital Theater Systems
Mode : 16
Format settings, Endianness : Big
Codec ID : A_DTS
Duration : 1h 23mn
Bit rate mode : Constant
Bit rate : 1 509 Kbps
Channel(s) : 6 channels
Channel positions : Front: L C R, Side: L R, LFE
Sampling rate : 48.0 KHz
Bit depth : 24 bits
Compression mode : Lossy
Stream size : 898 MiB (8%)
Title : Одноголосый закадровый | Юрий Живов
Language : Russian
Default : No
Forced : No
Audio #6
ID : 7
Format : AC-3
Format/Info : Audio Coding 3
Mode extension : CM (complete main)
Format settings, Endianness : Big
Codec ID : A_AC3
Duration : 1h 23mn
Bit rate mode : Constant
Bit rate : 192 Kbps
Channel(s) : 1 channel
Channel positions : Front: C
Sampling rate : 48.0 KHz
Bit depth : 16 bits
Compression mode : Lossy
Stream size : 114 MiB (1%)
Title : Одноголосый закадровый | Михаил Иванов | VHS
Language : Russian
Default : No
Forced : No
Audio #7
ID : 8
Format : AC-3
Format/Info : Audio Coding 3
Mode extension : CM (complete main)
Format settings, Endianness : Big
Codec ID : A_AC3
Duration : 1h 23mn
Bit rate mode : Constant
Bit rate : 192 Kbps
Channel(s) : 1 channel
Channel positions : Front: C
Sampling rate : 48.0 KHz
Bit depth : 16 bits
Compression mode : Lossy
Stream size : 114 MiB (1%)
Title : Одноголосый закадровый | Александр Марченко | VHS
Language : Russian
Default : No
Forced : No
Audio #8
ID : 9
Format : AC-3
Format/Info : Audio Coding 3
Mode extension : CM (complete main)
Format settings, Endianness : Big
Codec ID : A_AC3
Duration : 1h 23mn
Bit rate mode : Constant
Bit rate : 192 Kbps
Channel(s) : 1 channel
Channel positions : Front: C
Sampling rate : 48.0 KHz
Bit depth : 16 bits
Compression mode : Lossy
Stream size : 114 MiB (1%)
Title : Одноголосый закадровый | Антон Алексеев | VHS
Language : Russian
Default : No
Forced : No
Audio #9
ID : 10
Format : AC-3
Format/Info : Audio Coding 3
Mode extension : CM (complete main)
Format settings, Endianness : Big
Codec ID : A_AC3
Duration : 1h 23mn
Bit rate mode : Constant
Bit rate : 192 Kbps
Channel(s) : 1 channel
Channel positions : Front: C
Sampling rate : 48.0 KHz
Bit depth : 16 bits
Compression mode : Lossy
Stream size : 114 MiB (1%)
Title : Одноголосый закадровый | Лёша-прапорщик | VHS
Language : Russian
Default : No
Forced : No
Audio #10
ID : 11
Format : AC-3
Format/Info : Audio Coding 3
Mode extension : CM (complete main)
Format settings, Endianness : Big
Codec ID : A_AC3
Duration : 1h 23mn
Bit rate mode : Constant
Bit rate : 192 Kbps
Channel(s) : 1 channel
Channel positions : Front: C
Sampling rate : 48.0 KHz
Bit depth : 16 bits
Compression mode : Lossy
Stream size : 114 MiB (1%)
Title : Одноголосый закадровый | неизвестный | VHS
Language : Russian
Default : No
Forced : No
Audio #11
ID : 12
Format : DTS
Format/Info : Digital Theater Systems
Mode : 16
Format settings, Endianness : Big
Codec ID : A_DTS
Duration : 1h 23mn
Bit rate mode : Constant
Bit rate : 1 509 Kbps
Channel(s) : 6 channels
Channel positions : Front: L C R, Side: L R, LFE
Sampling rate : 48.0 KHz
Bit depth : 24 bits
Compression mode : Lossy
Stream size : 898 MiB (8%)
Title : Многоголосый закадровый
Language : Russian
Default : No
Forced : No
Audio #12
ID : 13
Format : AC-3
Format/Info : Audio Coding 3
Mode extension : CM (complete main)
Format settings, Endianness : Big
Codec ID : A_AC3
Duration : 1h 23mn
Bit rate mode : Constant
Bit rate : 384 Kbps
Channel(s) : 6 channels
Channel positions : Front: L C R, Side: L R, LFE
Sampling rate : 48.0 KHz
Bit depth : 16 bits
Compression mode : Lossy
Stream size : 228 MiB (2%)
Title : Многоголосый закадровый | New Dream Media / Позитив-Мультимедиа
Language : Russian
Default : No
Forced : No
Audio #13
ID : 14
Format : AC-3
Format/Info : Audio Coding 3
Mode extension : CM (complete main)
Format settings, Endianness : Big
Codec ID : A_AC3
Duration : 1h 23mn
Bit rate mode : Constant
Bit rate : 448 Kbps
Channel(s) : 6 channels
Channel positions : Front: L C R, Side: L R, LFE
Sampling rate : 48.0 KHz
Bit depth : 16 bits
Compression mode : Lossy
Stream size : 267 MiB (2%)
Title : Многоголосый закадровый | Инфо-фильм
Language : Russian
Default : No
Forced : No
Audio #14
ID : 15
Format : AC-3
Format/Info : Audio Coding 3
Mode extension : CM (complete main)
Format settings, Endianness : Big
Codec ID : A_AC3
Duration : 1h 23mn
Bit rate mode : Constant
Bit rate : 384 Kbps
Channel(s) : 6 channels
Channel positions : Front: L C R, Side: L R, LFE
Sampling rate : 48.0 KHz
Bit depth : 16 bits
Compression mode : Lossy
Stream size : 228 MiB (2%)
Title : Многоголосый закадровый | FDV
Language : Russian
Default : No
Forced : No
Audio #15
ID : 16
Format : AC-3
Format/Info : Audio Coding 3
Mode extension : CM (complete main)
Format settings, Endianness : Big
Codec ID : A_AC3
Duration : 1h 23mn
Bit rate mode : Constant
Bit rate : 192 Kbps
Channel(s) : 2 channels
Channel positions : Front: L R
Sampling rate : 48.0 KHz
Bit depth : 16 bits
Compression mode : Lossy
Stream size : 114 MiB (1%)
Title : Многоголосый закадровый | Мьюзик-трейд
Language : Russian
Default : No
Forced : No
Audio #16
ID : 17
Format : AC-3
Format/Info : Audio Coding 3
Mode extension : CM (complete main)
Format settings, Endianness : Big
Codec ID : A_AC3
Duration : 1h 23mn
Bit rate mode : Constant
Bit rate : 192 Kbps
Channel(s) : 1 channel
Channel positions : Front: C
Sampling rate : 48.0 KHz
Bit depth : 16 bits
Compression mode : Lossy
Stream size : 114 MiB (1%)
Title : Дубляж
Language : Ukrainian
Default : No
Forced : No
Audio #17
ID : 18
Format : AC-3
Format/Info : Audio Coding 3
Mode extension : CM (complete main)
Format settings, Endianness : Big
Codec ID : A_AC3
Duration : 1h 23mn
Bit rate mode : Constant
Bit rate : 192 Kbps
Channel(s) : 1 channel
Channel positions : Front: C
Sampling rate : 48.0 KHz
Bit depth : 16 bits
Compression mode : Lossy
Stream size : 114 MiB (1%)
Title : Двухголосый закадровый | Так Треба Продакшн | VHS
Language : Ukrainian
Default : No
Forced : No
Audio #18
ID : 19
Format : DTS
Format/Info : Digital Theater Systems
Mode : 16
Format settings, Endianness : Big
Codec ID : A_DTS
Duration : 1h 23mn
Bit rate mode : Constant
Bit rate : 1 509 Kbps
Channel(s) : 6 channels
Channel positions : Front: L C R, Side: L R, LFE
Sampling rate : 48.0 KHz
Bit depth : 24 bits
Compression mode : Lossy
Stream size : 898 MiB (8%)
Language : English
Default : No
Forced : No
Audio #19
ID : 20
Format : AC-3
Format/Info : Audio Coding 3
Mode extension : CM (complete main)
Format settings, Endianness : Big
Codec ID : A_AC3
Duration : 1h 23mn
Bit rate mode : Constant
Bit rate : 192 Kbps
Channel(s) : 2 channels
Channel positions : Front: L R
Sampling rate : 48.0 KHz
Bit depth : 16 bits
Compression mode : Lossy
Stream size : 114 MiB (1%)
Title : Commentary
Language : English
Default : No
Forced : No
Text #1
ID : 21
Format : UTF-8
Codec ID : S_TEXT/UTF8
Codec ID/Info : UTF-8 Plain Text
Title : forced
Language : Russian
Default : Yes
Forced : No
Text #2
ID : 22
Format : UTF-8
Codec ID : S_TEXT/UTF8
Codec ID/Info : UTF-8 Plain Text
Language : Russian
Default : No
Forced : No
Text #3
ID : 23
Format : UTF-8
Codec ID : S_TEXT/UTF8
Codec ID/Info : UTF-8 Plain Text
Title : commentary
Language : Russian
Default : No
Forced : No
Text #4
ID : 24
Format : UTF-8
Codec ID : S_TEXT/UTF8
Codec ID/Info : UTF-8 Plain Text
Language : Ukrainian
Default : No
Forced : No
Text #5
ID : 25
Format : UTF-8
Codec ID : S_TEXT/UTF8
Codec ID/Info : UTF-8 Plain Text
Title : commentary
Language : Ukrainian
Default : No
Forced : No
Text #6
ID : 26
Format : UTF-8
Codec ID : S_TEXT/UTF8
Codec ID/Info : UTF-8 Plain Text
Language : English
Default : No
Forced : No
Text #7
ID : 27
Format : UTF-8
Codec ID : S_TEXT/UTF8
Codec ID/Info : UTF-8 Plain Text
Title : SDH
Language : English
Default : No
Forced : No
Menu
00:00:00.000 : :01. Opening Credits
00:01:22.708 : :02. Once Upon a Time
00:02:11.965 : :03. The Magic Mirror
00:03:35.507 : :04. "I'm Wishing"
00:05:25.825 : :05. The Prince ("One Song")
00:07:00.045 : :06. The Queen's Evil Plan
00:09:11.426 : :07. Flight Through the Forest
00:11:34.736 : :08. "With a Smile and a Song"
00:14:56.979 : :09. The Dwarfs' Cottage
00:17:38.349 : :10. "Whistle While You Work"
00:21:25.284 : :11. "Heigh-Ho"
00:24:09.156 : :12. Snow White Explores Upstairs
00:25:29.820 : :13. The Dwarfs Arrive Home
00:34:55.427 : :14. Snow White Wakes Up
00:42:47.398 : :15. "Bluddle-Uddle-Um-Dum"
00:47:49.408 : :16. Deceived
00:49:15.828 : :17. The Queen Prepares A Disguise
00:52:02.119 : :18. "The Dwarfs' Yodel Song"
00:56:49.448 : :19. "Some Day My Prince Will Come"
00:58:53.321 : :20. Settling Down for the Night
01:02:38.797 : :21. The Poison Apple
01:05:40.937 : :22. The Next Morning
01:08:24.559 : :23. The Old Peddler Woman
01:11:41.297 : :24. The Animals Warn the Dwarfs
01:14:08.903 : :25. The Apple
01:17:42.992 : :26. A Bedside Vigil
01:20:27.614 : :27. Love's First Kiss

Скриншоты (Source vs Encode vs Estranged02 vs DON)






_________________
Показать сообщения:    

Текущее время: Сегодня 04:50

Часовой пояс: GMT



Вы не можете начинать темы
Вы не можете отвечать на сообщения
Вы не можете редактировать свои сообщения
Вы не можете удалять свои сообщения
Вы не можете голосовать в опросах
Вы не можете прикреплять файлы к сообщениям
Вы не можете скачивать файлы