Важное объявление!
У Нас Все раздачи мультитрекерные, при нуле пиров в релизах, можете смело вставать на закачку!
 
Автор Сообщение

HUNTER

Стаж:
4 года 4 месяца
Сообщений:
56839

Репутация: 101

[+] [-]
Вне форума [Профиль] [ЛС]

-Белоснежка и охотник-"Snow White and the Huntsman"---«Лишь одна будет править»---
2012
США, Roth Films, Universal Pictures
Фэнтези, боевик, драма, приключения
02:11:34
Профессиональный дублированный |Лицензия|[Blu-Ray]
Английские и русские-- Руперт Сандерс
Кристен Стюарт, Крис Хемсворт, Шарлиз Терон, Сэм Клафлин, Сэм Спруэлл, Йен МакШейн, Боб Хоскинс, Рэй Уинстон, Ник Фрост, Эдди Марсан--

Тьма приближается. Она прячется в лесах, спускается с гор, застилает небо. Никто не укроется от магического зеркала Королевы, живущей в неприступном замке, охраняемом бесчисленной армией. Но над Белоснежкой злые чары не властны. И тогда Королева отправляет Охотника, чтобы он принес ей сердце соперницы. Но очарованный Белоснежкой, он встает на ее сторону. Грядет великая битва. Лишь одна будет править.
--
----- Blu-ray Remux (1080p)
MKV
MPEG4
DTS | AC3
1920x1080 (16:9), 25.4 Mbps, 23,976 fps
DTS: 5.1 / 48 kHz / 1597 kbps /16-bit[Английский]
Dolby Digital: 5.1 / 48 kHz / 448 kbps [Русский]

Рейтинги

Рейтинг:
--

МедиаИнфо

Код: copyText_writeLink('this.parentNode.parentNode.nextSibling.nextSibling');
General
Complete name : G:\Belosnegka.i.ohotnik.2012.BluRay-Remux(1080p).mkv
Format : Matroska
Format version : Version 2
File size : 25.8 GiB
Duration : 2h 11mn
Overall bit rate mode : Variable
Overall bit rate : 28.1 Mbps
Movie name : --SCHUMAHER--
Encoded date : UTC 2012-09-21 11:44:16
Writing application : mkvmerge v5.8.0 ('No Sleep / Pillow') built on Sep 2 2012 15:37:04
Writing library : libebml v1.2.3 + libmatroska v1.3.0
Video
ID : 1
Format : AVC
Format/Info : Advanced Video Codec
Format profile : [url=mailto:High@L4.1]High@L4.1[/url]
Format settings, CABAC : Yes
Format settings, ReFrames : 4 frames
Codec ID : V_MPEG4/ISO/AVC
Duration : 2h 11mn
Bit rate mode : Variable
Bit rate : 25.4 Mbps
Maximum bit rate : 35.0 Mbps
Width : 1 920 pixels
Height : 1 080 pixels
Display aspect ratio : 16:9
Frame rate mode : Constant
Frame rate : 23.976 fps
Color space : YUV
Chroma subsampling : 4:2:0
Bit depth : 8 bits
Scan type : Progressive
Bits/(Pixel*Frame) : 0.512
Stream size : 23.4 GiB (91%)
Language : English
Default : Yes
Forced : Yes
Audio #1
ID : 2
Format : AC-3
Format/Info : Audio Coding 3
Mode extension : CM (complete main)
Format settings, Endianness : Big
Codec ID : A_AC3
Duration : 2h 11mn
Bit rate mode : Constant
Bit rate : 448 Kbps
Channel(s) : 6 channels
Channel positions : Front: L C R, Side: L R, LFE
Sampling rate : 48.0 KHz
Bit depth : 16 bits
Compression mode : Lossy
Stream size : 422 MiB (2%)
Language : Russian
Default : Yes
Forced : Yes
Audio #2
ID : 3
Format : DTS
Format/Info : Digital Theater Systems
Format profile : MA / Core
Codec ID : A_DTS
Duration : 2h 11mn
Bit rate mode : Variable
Bit rate : 1 597 Kbps / 1 510 Kbps
Channel(s) : 8 channels / 6 channels
Channel positions : Front: L C R, Side: L R, Back: L R, LFE / Front: L C R, Side: L R, LFE
Sampling rate : 48.0 KHz
Bit depth : 24 bits
Compression mode : Lossless / Lossy
Language : English
Default : No
Forced : No
Text #1
ID : 4
Format : UTF-8
Codec ID : S_TEXT/UTF8
Codec ID/Info : UTF-8 Plain Text
Language : Russian
Default : No
Forced : No
Text #2
ID : 5
Format : UTF-8
Codec ID : S_TEXT/UTF8
Codec ID/Info : UTF-8 Plain Text
Language : English
Default : No
Forced : No
Text #3
ID : 6
Format : UTF-8
Codec ID : S_TEXT/UTF8
Codec ID/Info : UTF-8 Plain Text
Title : SDH
Language : English
Default : No
Forced : No
Menu
00:00:00.000 : en:00:00:00.000
00:05:05.055 : en:00:05:05.055
00:10:26.793 : en:00:10:26.793
00:19:48.854 : en:00:19:48.854
00:27:46.456 : en:00:27:46.456
00:32:40.458 : en:00:32:40.458
00:38:04.490 : en:00:38:04.490
00:44:02.098 : en:00:44:02.098
00:51:08.649 : en:00:51:08.649
00:58:17.869 : en:00:58:17.869
01:02:08.558 : en:01:02:08.558
01:08:57.967 : en:01:08:57.967
01:13:36.537 : en:01:13:36.537
01:16:59.073 : en:01:16:59.073
01:26:57.003 : en:01:26:57.003
01:36:30.993 : en:01:36:30.993
01:43:37.795 : en:01:43:37.795
01:49:51.460 : en:01:49:51.460
01:53:44.734 : en:01:53:44.734
02:01:50.094 : en:02:01:50.094

Скриншоты

---Мои раздачи---
--По ночам не рaздаю!---

_________________
Показать сообщения:    

Текущее время: Сегодня 01:14

Часовой пояс: GMT



Вы не можете начинать темы
Вы не можете отвечать на сообщения
Вы не можете редактировать свои сообщения
Вы не можете удалять свои сообщения
Вы не можете голосовать в опросах
Вы не можете прикреплять файлы к сообщениям
Вы не можете скачивать файлы